  0
SECTION
  2
HEADER
  9
$ACADVER
  1
AC1015
  9
$ACADMAINTVER
 70
     6
  9
$DWGCODEPAGE
  3
ANSI_1252
  9
$INSBASE
 10
0.0
 20
0.0
 30
0.0
  9
$EXTMIN
 10
0.0
 20
0.0
 30
0.0
  9
$EXTMAX
 10
210.0000000000001
 20
297.0000000000001
 30
0.0
  9
$LIMMIN
 10
0.0
 20
0.0
  9
$LIMMAX
 10
12.0
 20
9.0
  9
$ORTHOMODE
 70
     0
  9
$REGENMODE
 70
     1
  9
$FILLMODE
 70
     1
  9
$QTEXTMODE
 70
     0
  9
$MIRRTEXT
 70
     1
  9
$LTSCALE
 40
1.0
  9
$ATTMODE
 70
     1
  9
$TEXTSIZE
 40
0.2
  9
$TRACEWID
 40
0.05
  9
$TEXTSTYLE
  7
Standard
  9
$CLAYER
  8
0
  9
$CELTYPE
  6
ByLayer
  9
$CECOLOR
 62
   256
  9
$CELTSCALE
 40
1.0
  9
$DISPSILH
 70
     0
  9
$DIMSCALE
 40
1.0
  9
$DIMASZ
 40
0.18
  9
$DIMEXO
 40
0.0625
  9
$DIMDLI
 40
0.38
  9
$DIMRND
 40
0.0
  9
$DIMDLE
 40
0.0
  9
$DIMEXE
 40
0.18
  9
$DIMTP
 40
0.0
  9
$DIMTM
 40
0.0
  9
$DIMTXT
 40
0.18
  9
$DIMCEN
 40
0.09
  9
$DIMTSZ
 40
0.0
  9
$DIMTOL
 70
     0
  9
$DIMLIM
 70
     0
  9
$DIMTIH
 70
     1
  9
$DIMTOH
 70
     1
  9
$DIMSE1
 70
     0
  9
$DIMSE2
 70
     0
  9
$DIMTAD
 70
     0
  9
$DIMZIN
 70
     0
  9
$DIMBLK
  1

  9
$DIMASO
 70
     1
  9
$DIMSHO
 70
     1
  9
$DIMPOST
  1

  9
$DIMAPOST
  1

  9
$DIMALT
 70
     0
  9
$DIMALTD
 70
     2
  9
$DIMALTF
 40
25.4
  9
$DIMLFAC
 40
1.0
  9
$DIMTOFL
 70
     0
  9
$DIMTVP
 40
0.0
  9
$DIMTIX
 70
     0
  9
$DIMSOXD
 70
     0
  9
$DIMSAH
 70
     0
  9
$DIMBLK1
  1

  9
$DIMBLK2
  1

  9
$DIMSTYLE
  2
Standard
  9
$DIMCLRD
 70
     0
  9
$DIMCLRE
 70
     0
  9
$DIMCLRT
 70
     0
  9
$DIMTFAC
 40
1.0
  9
$DIMGAP
 40
0.09
  9
$DIMJUST
 70
     0
  9
$DIMSD1
 70
     0
  9
$DIMSD2
 70
     0
  9
$DIMTOLJ
 70
     1
  9
$DIMTZIN
 70
     0
  9
$DIMALTZ
 70
     0
  9
$DIMALTTZ
 70
     0
  9
$DIMUPT
 70
     0
  9
$DIMDEC
 70
     4
  9
$DIMTDEC
 70
     4
  9
$DIMALTU
 70
     2
  9
$DIMALTTD
 70
     2
  9
$DIMTXSTY
  7
Standard
  9
$DIMAUNIT
 70
     0
  9
$DIMADEC
 70
     0
  9
$DIMALTRND
 40
0.0
  9
$DIMAZIN
 70
     0
  9
$DIMDSEP
 70
    46
  9
$DIMATFIT
 70
     3
  9
$DIMFRAC
 70
     0
  9
$DIMLDRBLK
  1

  9
$DIMLUNIT
 70
     2
  9
$DIMLWD
 70
    -2
  9
$DIMLWE
 70
    -2
  9
$DIMTMOVE
 70
     0
  9
$LUNITS
 70
     2
  9
$LUPREC
 70
     4
  9
$SKETCHINC
 40
0.1
  9
$FILLETRAD
 40
0.5
  9
$AUNITS
 70
     0
  9
$AUPREC
 70
     0
  9
$MENU
  1
.
  9
$ELEVATION
 40
0.0
  9
$PELEVATION
 40
0.0
  9
$THICKNESS
 40
0.0
  9
$LIMCHECK
 70
     0
  9
$CHAMFERA
 40
0.5
  9
$CHAMFERB
 40
0.5
  9
$CHAMFERC
 40
1.0
  9
$CHAMFERD
 40
0.0
  9
$SKPOLY
 70
     0
  9
$TDCREATE
 40
2456997.491334086
  9
$TDUCREATE
 40
2456997.449667419
  9
$TDUPDATE
 40
2456997.491334444
  9
$TDUUPDATE
 40
2456997.449667778
  9
$TDINDWG
 40
0.0000000116
  9
$TDUSRTIMER
 40
0.0000000116
  9
$USRTIMER
 70
     1
  9
$ANGBASE
 50
0.0
  9
$ANGDIR
 70
     0
  9
$PDMODE
 70
     0
  9
$PDSIZE
 40
0.0
  9
$PLINEWID
 40
0.0
  9
$SPLFRAME
 70
     0
  9
$SPLINETYPE
 70
     6
  9
$SPLINESEGS
 70
     8
  9
$HANDSEED
  5
32E
  9
$SURFTAB1
 70
     6
  9
$SURFTAB2
 70
     6
  9
$SURFTYPE
 70
     6
  9
$SURFU
 70
     6
  9
$SURFV
 70
     6
  9
$UCSBASE
  2

  9
$UCSNAME
  2

  9
$UCSORG
 10
0.0
 20
0.0
 30
0.0
  9
$UCSXDIR
 10
1.0
 20
0.0
 30
0.0
  9
$UCSYDIR
 10
0.0
 20
1.0
 30
0.0
  9
$UCSORTHOREF
  2

  9
$UCSORTHOVIEW
 70
     0
  9
$UCSORGTOP
 10
0.0
 20
0.0
 30
0.0
  9
$UCSORGBOTTOM
 10
0.0
 20
0.0
 30
0.0
  9
$UCSORGLEFT
 10
0.0
 20
0.0
 30
0.0
  9
$UCSORGRIGHT
 10
0.0
 20
0.0
 30
0.0
  9
$UCSORGFRONT
 10
0.0
 20
0.0
 30
0.0
  9
$UCSORGBACK
 10
0.0
 20
0.0
 30
0.0
  9
$PUCSBASE
  2

  9
$PUCSNAME
  2

  9
$PUCSORG
 10
0.0
 20
0.0
 30
0.0
  9
$PUCSXDIR
 10
1.0
 20
0.0
 30
0.0
  9
$PUCSYDIR
 10
0.0
 20
1.0
 30
0.0
  9
$PUCSORTHOREF
  2

  9
$PUCSORTHOVIEW
 70
     0
  9
$PUCSORGTOP
 10
0.0
 20
0.0
 30
0.0
  9
$PUCSORGBOTTOM
 10
0.0
 20
0.0
 30
0.0
  9
$PUCSORGLEFT
 10
0.0
 20
0.0
 30
0.0
  9
$PUCSORGRIGHT
 10
0.0
 20
0.0
 30
0.0
  9
$PUCSORGFRONT
 10
0.0
 20
0.0
 30
0.0
  9
$PUCSORGBACK
 10
0.0
 20
0.0
 30
0.0
  9
$USERI1
 70
     0
  9
$USERI2
 70
     0
  9
$USERI3
 70
     0
  9
$USERI4
 70
     0
  9
$USERI5
 70
     0
  9
$USERR1
 40
18.1
  9
$USERR2
 40
0.0
  9
$USERR3
 40
0.0
  9
$USERR4
 40
0.0
  9
$USERR5
 40
0.0
  9
$WORLDVIEW
 70
     1
  9
$SHADEDGE
 70
     3
  9
$SHADEDIF
 70
    70
  9
$TILEMODE
 70
     1
  9
$MAXACTVP
 70
    64
  9
$PINSBASE
 10
0.0
 20
0.0
 30
0.0
  9
$PLIMCHECK
 70
     0
  9
$PEXTMIN
 10
1.00000000000000E+20
 20
1.00000000000000E+20
 30
1.00000000000000E+20
  9
$PEXTMAX
 10
-1.00000000000000E+20
 20
-1.00000000000000E+20
 30
-1.00000000000000E+20
  9
$PLIMMIN
 10
0.0
 20
0.0
  9
$PLIMMAX
 10
12.0
 20
9.0
  9
$UNITMODE
 70
     0
  9
$VISRETAIN
 70
     1
  9
$PLINEGEN
 70
     0
  9
$PSLTSCALE
 70
     1
  9
$TREEDEPTH
 70
  3020
  9
$CMLSTYLE
  2
Standard
  9
$CMLJUST
 70
     0
  9
$CMLSCALE
 40
1.0
  9
$PROXYGRAPHICS
 70
     1
  9
$MEASUREMENT
 70
     1
  9
$CELWEIGHT
370
    -1
  9
$ENDCAPS
280
     0
  9
$JOINSTYLE
280
     0
  9
$LWDISPLAY
290
     0
  9
$INSUNITS
 70
     4
  9
$HYPERLINKBASE
  1

  9
$STYLESHEET
  1

  9
$XEDIT
290
     1
  9
$CEPSNTYPE
380
     0
  9
$PSTYLEMODE
290
     1
  9
$FINGERPRINTGUID
  2
{EC29F850-939D-4C84-9BE4-685F6FE3F1DD}
  9
$VERSIONGUID
  2
{FAEB1C32-E019-11D5-929B-00C0DF256EC4}
  9
$EXTNAMES
290
     1
  9
$PSVPSCALE
 40
0.0
  9
$OLESTARTUP
290
     0
  0
ENDSEC
  0
SECTION
  2
CLASSES
  0
CLASS
  1
ACDBDICTIONARYWDFLT
  2
AcDbDictionaryWithDefault
  3
ObjectDBX Classes
 90
        0
280
     0
281
     0
  0
CLASS
  1
VISUALSTYLE
  2
AcDbVisualStyle
  3
ObjectDBX Classes
 90
     4095
280
     0
281
     0
  0
CLASS
  1
MATERIAL
  2
AcDbMaterial
  3
ObjectDBX Classes
 90
     1153
280
     0
281
     0
  0
CLASS
  1
DICTIONARYVAR
  2
AcDbDictionaryVar
  3
ObjectDBX Classes
 90
        0
280
     0
281
     0
  0
CLASS
  1
ACDBPLACEHOLDER
  2
AcDbPlaceHolder
  3
ObjectDBX Classes
 90
        0
280
     0
281
     0
  0
CLASS
  1
LAYOUT
  2
AcDbLayout
  3
ObjectDBX Classes
 90
        0
280
     0
281
     0
  0
ENDSEC
  0
SECTION
  2
TABLES
  0
TABLE
  2
VPORT
  5
8
330
0
100
AcDbSymbolTable
 70
     1
  0
VPORT
  5
29
330
8
100
AcDbSymbolTableRecord
100
AcDbViewportTableRecord
  2
*Active
 70
     0
 10
0.0
 20
0.0
 11
1.0
 21
1.0
 12
105.0000000000001
 22
148.5000000000001
 13
0.0
 23
0.0
 14
0.5
 24
0.5
 15
0.5
 25
0.5
 16
0.0
 26
0.0
 36
1.0
 17
0.0
 27
0.0
 37
0.0
 40
326.7000000000002
 41
1.60267857142857
 42
50.0
 43
0.0
 44
0.0
 50
0.0
 51
0.0
 71
     0
 72
   100
 73
     1
 74
     3
 75
     0
 76
     0
 77
     0
 78
     0
281
     0
 65
     1
110
0.0
120
0.0
130
0.0
111
1.0
121
0.0
131
0.0
112
0.0
122
1.0
132
0.0
 79
     0
146
0.0
  0
ENDTAB
  0
TABLE
  2
LTYPE
  5
5
330
0
100
AcDbSymbolTable
 70
     8
  0
LTYPE
  5
14
330
5
100
AcDbSymbolTableRecord
100
AcDbLinetypeTableRecord
  2
ByBlock
 70
     0
  3

 72
    65
 73
     0
 40
0.0
  0
LTYPE
  5
15
330
5
100
AcDbSymbolTableRecord
100
AcDbLinetypeTableRecord
  2
ByLayer
 70
     0
  3

 72
    65
 73
     0
 40
0.0
  0
LTYPE
  5
16
330
5
100
AcDbSymbolTableRecord
100
AcDbLinetypeTableRecord
  2
Continuous
 70
     0
  3
Solid line
 72
    65
 73
     0
 40
0.0
  0
LTYPE
  5
3F
330
5
100
AcDbSymbolTableRecord
100
AcDbLinetypeTableRecord
  2
DASHED
 70
     0
  3
Dashed
 72
    65
 73
     2
 40
15.0
 49
7.0
 74
     0
 49
-8.0
 74
     0
  0
LTYPE
  5
40
330
5
100
AcDbSymbolTableRecord
100
AcDbLinetypeTableRecord
  2
DOTTED
 70
     0
  3
Dotted
 72
    65
 73
     2
 40
1.0
 49
0.0
 74
     0
 49
-1.0
 74
     0
  0
LTYPE
  5
41
330
5
100
AcDbSymbolTableRecord
100
AcDbLinetypeTableRecord
  2
DOT_CENTER
 70
     0
  3
Dot_Center
 72
    65
 73
     4
 40
14.0
 49
12.0
 74
     0
 49
-1.0
 74
     0
 49
0.0
 74
     0
 49
-1.0
 74
     0
  0
LTYPE
  5
42
330
5
100
AcDbSymbolTableRecord
100
AcDbLinetypeTableRecord
  2
LONG_DASHED
 70
     0
  3
Long_Dashed
 72
    65
 73
     2
 40
15.0
 49
10.0
 74
     0
 49
-5.0
 74
     0
  0
LTYPE
  5
43
330
5
100
AcDbSymbolTableRecord
100
AcDbLinetypeTableRecord
  2
DASH_CENTER
 70
     0
  3
Dash_Center
 72
    65
 73
     4
 40
14.0
 49
11.0
 74
     0
 49
-1.0
 74
     0
 49
1.0
 74
     0
 49
-1.0
 74
     0
  0
LTYPE
  5
44
330
5
100
AcDbSymbolTableRecord
100
AcDbLinetypeTableRecord
  2
PHANTOM
 70
     0
  3
Phantom
 72
    65
 73
     6
 40
13.0
 49
10.0
 74
     0
 49
-1.0
 74
     0
 49
0.0
 74
     0
 49
-1.0
 74
     0
 49
0.0
 74
     0
 49
-1.0
 74
     0
  0
LTYPE
  5
45
330
5
100
AcDbSymbolTableRecord
100
AcDbLinetypeTableRecord
  2
CENTER_DASH_DASH
 70
     0
  3
Center_Dash_Dash
 72
    65
 73
     6
 40
14.0
 49
9.0
 74
     0
 49
-1.0
 74
     0
 49
1.0
 74
     0
 49
-1.0
 74
     0
 49
1.0
 74
     0
 49
-1.0
 74
     0
  0
ENDTAB
  0
TABLE
  2
LAYER
  5
2
330
0
100
AcDbSymbolTable
 70
     2
  0
LAYER
  5
10
330
2
100
AcDbSymbolTableRecord
100
AcDbLayerTableRecord
  2
0
 70
     0
 62
     7
  6
Continuous
370
    -3
390
F
  0
LAYER
  5
46
330
2
100
AcDbSymbolTableRecord
100
AcDbLayerTableRecord
  2
1
 70
     0
 62
     7
  6
Continuous
370
    -3
390
F
  0
ENDTAB
  0
TABLE
  2
STYLE
  5
3
330
0
100
AcDbSymbolTable
 70
     4
  0
STYLE
  5
11
330
3
100
AcDbSymbolTableRecord
100
AcDbTextStyleTableRecord
  2
Standard
 70
     0
 40
0.0
 41
1.0
 50
0.0
 71
     0
 42
0.2
  3
txt
  4

  0
STYLE
  5
9B
330
3
100
AcDbSymbolTableRecord
100
AcDbTextStyleTableRecord
  2
CONVERTER_11
 70
     0
 40
0.0
 41
1.2
 50
0.0
 71
     0
 42
0.2
  3
ARIAL.TTF
  4

  0
STYLE
  5
A4
330
3
100
AcDbSymbolTableRecord
100
AcDbTextStyleTableRecord
  2
CONVERTER_12
 70
     0
 40
0.0
 41
1.38
 50
0.0
 71
     0
 42
0.2
  3
ARIAL.TTF
  4

  0
STYLE
  5
2E7
330
3
100
AcDbSymbolTableRecord
100
AcDbTextStyleTableRecord
  2
CONVERTER_13
 70
     0
 40
0.0
 41
0.95
 50
0.0
 71
     0
 42
0.2
  3
simplex.shx
  4

  0
ENDTAB
  0
TABLE
  2
VIEW
  5
6
330
0
100
AcDbSymbolTable
 70
     0
  0
ENDTAB
  0
TABLE
  2
UCS
  5
7
330
0
100
AcDbSymbolTable
 70
     0
  0
ENDTAB
  0
TABLE
  2
APPID
  5
9
330
0
100
AcDbSymbolTable
 70
     1
  0
APPID
  5
12
330
9
100
AcDbSymbolTableRecord
100
AcDbRegAppTableRecord
  2
ACAD
 70
     0
  0
ENDTAB
  0
TABLE
  2
DIMSTYLE
  5
A
330
0
100
AcDbSymbolTable
 70
     4
100
AcDbDimStyleTable
  0
DIMSTYLE
105
27
330
A
100
AcDbSymbolTableRecord
100
AcDbDimStyleTableRecord
  2
Standard
 70
     0
178
     0
340
11
  0
DIMSTYLE
105
2EB
102
{ACAD_REACTORS
330
2EC
102
}
330
A
100
AcDbSymbolTableRecord
100
AcDbDimStyleTableRecord
  2
ME10_DIM_10
 70
     0
 41
3.0
 42
0.5
 44
1.0
 73
     0
 74
     0
 77
     1
 78
     8
140
3.0
147
2.0
172
     1
173
     1
174
     1
175
     1
176
     2
177
     2
271
     2
178
     4
271
     2
340
2E7
  0
DIMSTYLE
105
2F6
102
{ACAD_REACTORS
330
2F7
102
}
330
A
100
AcDbSymbolTableRecord
100
AcDbDimStyleTableRecord
  2
ME10_DIM_11
 70
     0
 41
3.0
 42
0.5
 44
1.0
 73
     0
 74
     0
 77
     1
 78
     8
140
3.0
147
2.0
172
     1
173
     1
174
     1
175
     1
176
     2
177
     2
271
     2
178
     4
271
     2
340
2E7
  0
DIMSTYLE
105
301
102
{ACAD_REACTORS
330
302
102
}
330
A
100
AcDbSymbolTableRecord
100
AcDbDimStyleTableRecord
  2
ME10_DIM_12
 70
     0
 41
3.0
 42
0.5
 44
1.0
 73
     0
 74
     0
 77
     1
 78
     8
140
3.0
147
2.0
172
     1
173
     1
174
     1
175
     1
176
     2
177
     2
271
     2
178
     4
271
     2
340
2E7
  0
ENDTAB
  0
TABLE
  2
BLOCK_RECORD
  5
1
330
0
100
AcDbSymbolTable
 70
     6
  0
BLOCK_RECORD
  5
1F
330
1
100
AcDbSymbolTableRecord
100
AcDbBlockTableRecord
  2
*Model_Space
340
22
  0
BLOCK_RECORD
  5
1B
330
1
100
AcDbSymbolTableRecord
100
AcDbBlockTableRecord
  2
*Paper_Space
340
1E
  0
BLOCK_RECORD
  5
23
330
1
100
AcDbSymbolTableRecord
100
AcDbBlockTableRecord
  2
*Paper_Space0
340
26
  0
BLOCK_RECORD
  5
47
330
1
100
AcDbSymbolTableRecord
100
AcDbBlockTableRecord
  2
_formato_A4
340
0
102
{BLKREFS
331
4B
102
}
  0
BLOCK_RECORD
  5
4A
330
1
100
AcDbSymbolTableRecord
100
AcDbBlockTableRecord
  2
A4
340
0
102
{BLKREFS
331
4E
102
}
  0
BLOCK_RECORD
  5
2E1
330
1
100
AcDbSymbolTableRecord
100
AcDbBlockTableRecord
  2
*D3
340
0
  0
BLOCK_RECORD
  5
2ED
330
1
100
AcDbSymbolTableRecord
100
AcDbBlockTableRecord
  2
*D4
340
0
  0
BLOCK_RECORD
  5
2F8
330
1
100
AcDbSymbolTableRecord
100
AcDbBlockTableRecord
  2
*D5
340
0
  0
ENDTAB
  0
ENDSEC
  0
SECTION
  2
BLOCKS
  0
BLOCK
  5
20
330
1F
100
AcDbEntity
  8
0
100
AcDbBlockBegin
  2
*Model_Space
 70
     0
 10
0.0
 20
0.0
 30
0.0
  3
*Model_Space
  1

  0
ENDBLK
  5
21
330
1F
100
AcDbEntity
  8
0
100
AcDbBlockEnd
  0
BLOCK
  5
1C
330
1B
100
AcDbEntity
 67
     1
  8
0
100
AcDbBlockBegin
  2
*Paper_Space
 70
     0
 10
0.0
 20
0.0
 30
0.0
  3
*Paper_Space
  1

  0
ENDBLK
  5
1D
330
1B
100
AcDbEntity
 67
     1
  8
0
100
AcDbBlockEnd
  0
BLOCK
  5
24
330
23
100
AcDbEntity
  8
0
100
AcDbBlockBegin
  2
*Paper_Space0
 70
     0
 10
0.0
 20
0.0
 30
0.0
  3
*Paper_Space0
  1

  0
ENDBLK
  5
25
330
23
100
AcDbEntity
  8
0
100
AcDbBlockEnd
  0
BLOCK
  5
48
330
47
100
AcDbEntity
  8
0
100
AcDbBlockBegin
  2
_formato_A4
 70
     0
 10
210.0000000000001
 20
0.0
 30
0.0
  3
_formato_A4
  1

  0
LINE
  5
4F
330
47
100
AcDbEntity
  8
1
  6
Continuous
 62
     7
100
AcDbLine
 10
21.00000000000011
 20
20.0
 30
0.0
 11
205.0000000000001
 21
20.0
 31
0.0
  0
LINE
  5
50
330
47
100
AcDbEntity
  8
1
  6
Continuous
 62
     7
100
AcDbLine
 10
21.00000000000011
 20
4.99999999999989
 30
0.0
 11
205.0000000000001
 21
4.99999999999989
 31
0.0
  0
LINE
  5
51
330
47
100
AcDbEntity
  8
1
  6
Continuous
 62
     7
100
AcDbLine
 10
46.00000000000023
 20
35.0
 30
0.0
 11
46.00000000000023
 21
40.0
 31
0.0
  0
LINE
  5
52
330
47
100
AcDbEntity
  8
1
  6
Continuous
 62
     7
100
AcDbLine
 10
28.00000000000011
 20
35.0
 30
0.0
 11
28.00000000000011
 21
40.0
 31
0.0
  0
LINE
  5
53
330
47
100
AcDbEntity
  8
1
  6
Continuous
 62
     7
100
AcDbLine
 10
21.00000000000011
 20
40.0
 30
0.0
 11
205.0000000000001
 21
40.0
 31
0.0
  0
LINE
  5
54
330
47
100
AcDbEntity
  8
1
  6
Continuous
 62
     7
100
AcDbLine
 10
46.00000000000023
 20
30.0
 30
0.0
 11
46.00000000000023
 21
35.0
 31
0.0
  0
LINE
  5
55
330
47
100
AcDbEntity
  8
1
  6
Continuous
 62
     7
100
AcDbLine
 10
28.00000000000011
 20
30.0
 30
0.0
 11
28.00000000000011
 21
35.0
 31
0.0
  0
LINE
  5
56
330
47
100
AcDbEntity
  8
1
  6
Continuous
 62
     7
100
AcDbLine
 10
21.00000000000011
 20
35.0
 30
0.0
 11
205.0000000000001
 21
35.0
 31
0.0
  0
LINE
  5
57
330
47
100
AcDbEntity
  8
1
  6
Continuous
 62
     7
100
AcDbLine
 10
46.00000000000023
 20
25.0
 30
0.0
 11
46.00000000000023
 21
30.0
 31
0.0
  0
LINE
  5
58
330
47
100
AcDbEntity
  8
1
  6
Continuous
 62
     7
100
AcDbLine
 10
28.00000000000011
 20
25.0
 30
0.0
 11
28.00000000000011
 21
30.0
 31
0.0
  0
LINE
  5
59
330
47
100
AcDbEntity
  8
1
  6
Continuous
 62
     7
100
AcDbLine
 10
21.00000000000011
 20
30.0
 30
0.0
 11
205.0000000000001
 21
30.0
 31
0.0
  0
LINE
  5
5A
330
47
100
AcDbEntity
  8
1
  6
Continuous
 62
     7
100
AcDbLine
 10
46.00000000000023
 20
20.0
 30
0.0
 11
46.00000000000023
 21
25.0
 31
0.0
  0
LINE
  5
5B
330
47
100
AcDbEntity
  8
1
  6
Continuous
 62
     7
100
AcDbLine
 10
28.00000000000011
 20
20.0
 30
0.0
 11
28.00000000000011
 21
25.0
 31
0.0
  0
LINE
  5
5C
330
47
100
AcDbEntity
  8
1
  6
Continuous
 62
     7
100
AcDbLine
 10
21.00000000000011
 20
25.0
 30
0.0
 11
205.0000000000001
 21
25.0
 31
0.0
  0
LINE
  5
5D
102
{ACAD_REACTORS
330
A6
102
}
330
47
100
AcDbEntity
  8
1
  6
Continuous
 62
     7
100
AcDbLine
 10
195.8428748399059
 20
10.55800208038033
 30
0.0
 11
194.5095415065727
 21
9.78877131114973
 31
0.0
  0
LINE
  5
5E
102
{ACAD_REACTORS
330
A6
102
}
330
47
100
AcDbEntity
  8
1
  6
Continuous
 62
     7
100
AcDbLine
 10
194.6763006887428
 20
10.65463653264794
 30
0.0
 11
195.5097265375796
 21
11.13545913774624
 31
0.0
  0
LINE
  5
5F
102
{ACAD_REACTORS
330
A6
102
}
330
47
100
AcDbEntity
  8
1
  6
Continuous
 62
     7
100
AcDbLine
 10
194.6763006887428
 20
12.16666666666663
 30
0.0
 11
194.6763006887428
 21
10.65463653264794
 31
0.0
  0
LINE
  5
60
102
{ACAD_REACTORS
330
A6
102
}
330
47
100
AcDbEntity
  8
1
  6
Continuous
 62
     7
100
AcDbLine
 10
195.6763006887428
 20
12.16666666666663
 30
0.0
 11
194.6763006887428
 21
12.16666666666663
 31
0.0
  0
LINE
  5
61
102
{ACAD_REACTORS
330
A6
102
}
330
47
100
AcDbEntity
  8
1
  6
Continuous
 62
     7
100
AcDbLine
 10
194.6763006887428
 20
12.83333333333326
 30
0.0
 11
195.6763006887428
 21
12.83333333333326
 31
0.0
  0
LINE
  5
62
102
{ACAD_REACTORS
330
A6
102
}
330
47
100
AcDbEntity
  8
1
  6
Continuous
 62
     7
100
AcDbLine
 10
194.6763006887428
 20
14.34536346735195
 30
0.0
 11
194.6763006887428
 21
12.83333333333326
 31
0.0
  0
LINE
  5
63
102
{ACAD_REACTORS
330
A6
102
}
330
47
100
AcDbEntity
  8
1
  6
Continuous
 62
     7
100
AcDbLine
 10
195.5097265375796
 20
13.86454086225376
 30
0.0
 11
194.6763006887428
 21
14.34536346735195
 31
0.0
  0
LINE
  5
64
102
{ACAD_REACTORS
330
A6
102
}
330
47
100
AcDbEntity
  8
1
  6
Continuous
 62
     7
100
AcDbLine
 10
194.5095415065727
 20
15.21122868885027
 30
0.0
 11
195.8428748399059
 21
14.44199791961944
 31
0.0
  0
LINE
  5
65
102
{ACAD_REACTORS
330
A7
102
}
330
47
100
AcDbEntity
  8
1
  6
Continuous
 62
     7
100
AcDbLine
 10
187.3429673554094
 20
10.84673060906323
 30
0.0
 11
187.3429673554094
 21
14.15326939093666
 31
0.0
  0
LINE
  5
66
102
{ACAD_REACTORS
330
A7
102
}
330
47
100
AcDbEntity
  8
1
  6
Continuous
 62
     7
100
AcDbLine
 10
188.0096340220761
 20
11.0392519172633
 30
0.0
 11
188.0096340220761
 21
10.84673060906323
 31
0.0
  0
LINE
  5
67
102
{ACAD_REACTORS
330
A7
102
}
330
47
100
AcDbEntity
  8
1
  6
Continuous
 62
     7
100
AcDbLine
 10
188.0096340220761
 20
14.15326939093666
 30
0.0
 11
188.0096340220761
 21
11.0392519172633
 31
0.0
  0
LINE
  5
68
102
{ACAD_REACTORS
330
A8
102
}
330
47
100
AcDbEntity
  8
1
  6
Continuous
 62
     7
100
AcDbLine
 10
191.1763932042462
 20
8.44261746499581
 30
0.0
 11
189.0098190530831
 21
9.69256409066691
 31
0.0
  0
LINE
  5
69
102
{ACAD_REACTORS
330
A8
102
}
330
47
100
AcDbEntity
  8
1
  6
Continuous
 62
     7
100
AcDbLine
 10
189.3429673554094
 20
10.2700211480327
 30
0.0
 11
191.5095415065727
 21
9.0200745223616
 31
0.0
  0
LINE
  5
6A
102
{ACAD_REACTORS
330
A8
102
}
330
47
100
AcDbEntity
  8
1
  6
Continuous
 62
     7
100
AcDbLine
 10
189.3429673554094
 20
14.92250016016737
 30
0.0
 11
189.3429673554094
 21
10.2700211480327
 31
0.0
  0
LINE
  5
6B
102
{ACAD_REACTORS
330
A8
102
}
330
47
100
AcDbEntity
  8
1
  6
Continuous
 62
     7
100
AcDbLine
 10
188.6763006887428
 20
10.27002114803258
 30
0.0
 11
188.6763006887428
 21
14.92250016016737
 31
0.0
  0
LINE
  5
6C
102
{ACAD_REACTORS
330
A9
102
}
330
47
100
AcDbEntity
  8
1
  6
Continuous
 62
     7
100
AcDbLine
 10
192.8485336717861
 20
15.86370041827229
 30
0.0
 11
191.6763006887428
 21
13.83333333333326
 31
0.0
  0
LINE
  5
6D
102
{ACAD_REACTORS
330
A9
102
}
330
47
100
AcDbEntity
  8
1
  6
Continuous
 62
     7
100
AcDbLine
 10
193.3429673554094
 20
9.3082690706018
 30
0.0
 11
193.3429673554094
 21
15.73121731203457
 31
0.0
  0
LINE
  5
6E
102
{ACAD_REACTORS
330
A9
102
}
330
47
100
AcDbEntity
  8
1
  6
Continuous
 62
     7
100
AcDbLine
 10
192.6763006887428
 20
12.5
 30
0.0
 11
192.6763006887428
 21
9.3082690706018
 31
0.0
  0
LINE
  5
6F
102
{ACAD_REACTORS
330
A9
102
}
330
47
100
AcDbEntity
  8
1
  6
Continuous
 62
     7
100
AcDbLine
 10
190.6763006887428
 20
10.84758507263291
 30
0.0
 11
190.6763006887428
 21
12.5
 31
0.0
  0
LINE
  5
70
102
{ACAD_REACTORS
330
A9
102
}
330
47
100
AcDbEntity
  8
1
  6
Continuous
 62
     7
100
AcDbLine
 10
190.0096340220761
 20
12.5
 30
0.0
 11
190.0096340220761
 21
10.84758507263291
 31
0.0
  0
LINE
  5
71
102
{ACAD_REACTORS
330
A9
102
}
330
47
100
AcDbEntity
  8
1
  6
Continuous
 62
     7
100
AcDbLine
 10
190.5040677056995
 20
15.86370041827229
 30
0.0
 11
191.6763006887428
 21
13.83333333333326
 31
0.0
  0
LINE
  5
72
102
{ACAD_REACTORS
330
A9
102
}
330
47
100
AcDbEntity
  8
1
  6
Continuous
 62
     7
100
AcDbLine
 10
190.0096340220761
 20
12.5
 30
0.0
 11
190.0096340220761
 21
15.73121731203457
 31
0.0
  0
LINE
  5
73
330
47
100
AcDbEntity
  8
1
  6
Continuous
 62
     7
100
AcDbLine
 10
191.6763006887428
 20
7.5
 30
0.0
 11
183.2598654136012
 21
12.35563573565855
 31
0.0
  0
LINE
  5
74
330
47
100
AcDbEntity
  8
1
  6
Continuous
 62
     7
100
AcDbLine
 10
200.0927359638843
 20
12.35563573565855
 30
0.0
 11
191.6763006887428
 21
7.5
 31
0.0
  0
LINE
  5
75
330
47
100
AcDbEntity
  8
1
  6
Continuous
 62
     7
100
AcDbLine
 10
191.6763006887428
 20
17.5
 30
0.0
 11
200.0927359638843
 21
12.64436426434133
 31
0.0
  0
LINE
  5
76
330
47
100
AcDbEntity
  8
1
  6
Continuous
 62
     7
100
AcDbLine
 10
183.2598654136012
 20
12.64436426434133
 30
0.0
 11
191.6763006887428
 21
17.5
 31
0.0
  0
LINE
  5
77
102
{ACAD_REACTORS
330
A9
102
}
330
47
100
AcDbEntity
  8
1
  6
Continuous
 62
     7
100
AcDbLine
 10
190.6763006887428
 20
14.23205080756884
 30
0.0
 11
190.6763006887428
 21
12.5
 31
0.0
  0
LINE
  5
78
102
{ACAD_REACTORS
330
A9
102
}
330
47
100
AcDbEntity
  8
1
  6
Continuous
 62
     7
100
AcDbLine
 10
191.5319631214453
 20
12.75
 30
0.0
 11
190.6763006887428
 21
14.23205080756884
 31
0.0
  0
LINE
  5
79
102
{ACAD_REACTORS
330
A9
102
}
330
47
100
AcDbEntity
  8
1
  6
Continuous
 62
     7
100
AcDbLine
 10
192.6763006887428
 20
14.23205080756884
 30
0.0
 11
191.8206382560402
 21
12.75
 31
0.0
  0
LINE
  5
7A
102
{ACAD_REACTORS
330
A9
102
}
330
47
100
AcDbEntity
  8
1
  6
Continuous
 62
     7
100
AcDbLine
 10
192.6763006887428
 20
12.5
 30
0.0
 11
192.6763006887428
 21
14.23205080756884
 31
0.0
  0
LINE
  5
7B
102
{ACAD_REACTORS
330
A6
102
}
330
47
100
AcDbEntity
  8
1
  6
Continuous
 62
     7
100
AcDbLine
 10
194.0096340220762
 20
10.07749983983263
 30
0.0
 11
194.0096340220762
 21
14.92250016016737
 31
0.0
  0
LINE
  5
7C
330
47
100
AcDbEntity
  8
1
  6
Continuous
 62
     7
100
AcDbLine
 10
21.00000000000011
 20
292.0000000000001
 30
0.0
 11
21.00000000000011
 21
4.99999999999989
 31
0.0
  0
LINE
  5
7D
330
47
100
AcDbEntity
  8
1
  6
Continuous
 62
     7
100
AcDbLine
 10
205.0000000000001
 20
292.0000000000001
 30
0.0
 11
21.00000000000011
 21
292.0000000000001
 31
0.0
  0
LINE
  5
7E
330
47
100
AcDbEntity
  8
1
  6
Continuous
 62
     7
100
AcDbLine
 10
205.0000000000001
 20
4.99999999999989
 30
0.0
 11
205.0000000000001
 21
292.0000000000001
 31
0.0
  0
LINE
  5
7F
330
47
100
AcDbEntity
  8
1
  6
Continuous
 62
     7
100
AcDbLine
 10
210.0000000000001
 20
297.0000000000001
 30
0.0
 11
0.0
 21
297.0000000000001
 31
0.0
  0
LINE
  5
80
330
47
100
AcDbEntity
  8
1
  6
Continuous
 62
     7
100
AcDbLine
 10
0.0
 20
297.0000000000001
 30
0.0
 11
0.0
 21
0.0
 31
0.0
  0
LINE
  5
81
330
47
100
AcDbEntity
  8
1
  6
Continuous
 62
     7
100
AcDbLine
 10
0.0
 20
0.0
 30
0.0
 11
210.0000000000001
 21
0.0
 31
0.0
  0
LINE
  5
82
330
47
100
AcDbEntity
  8
1
  6
Continuous
 62
     7
100
AcDbLine
 10
210.0000000000001
 20
0.0
 30
0.0
 11
210.0000000000001
 21
297.0000000000001
 31
0.0
  0
LINE
  5
83
330
47
100
AcDbEntity
  8
1
  6
Continuous
 62
     7
100
AcDbLine
 10
0.0
 20
148.4999999999998
 30
0.0
 11
15.0
 21
148.4999999999998
 31
0.0
  0
LINE
  5
84
330
47
100
AcDbEntity
  8
1
  6
Continuous
 62
     7
100
AcDbLine
 10
21.00000000000011
 20
9.99999999999989
 30
0.0
 11
51.00000000000011
 21
9.99999999999989
 31
0.0
  0
LINE
  5
85
330
47
100
AcDbEntity
  8
1
  6
Continuous
 62
     7
100
AcDbLine
 10
51.00000000000011
 20
20.0
 30
0.0
 11
51.00000000000011
 21
5.0
 31
0.0
  0
LINE
  5
86
330
47
100
AcDbEntity
  8
1
  6
Continuous
 62
     7
100
AcDbLine
 10
178.3526013774855
 20
20.0
 30
0.0
 11
178.3526013774855
 21
5.0
 31
0.0
  0
LINE
  5
87
330
47
100
AcDbEntity
  8
1
  6
Continuous
 62
     7
100
AcDbLine
 10
161.0000000000001
 20
20.0
 30
0.0
 11
161.0000000000001
 21
5.0
 31
0.0
  0
LINE
  5
88
330
47
100
AcDbEntity
  8
1
  6
Continuous
 62
     7
100
AcDbLine
 10
21.00000000000011
 20
20.0
 30
0.0
 11
21.00000000000011
 21
4.99999999999989
 31
0.0
  0
LINE
  5
89
330
47
100
AcDbEntity
  8
1
  6
Continuous
 62
     7
100
AcDbLine
 10
21.00000000000011
 20
14.99999999999989
 30
0.0
 11
51.00000000000011
 21
14.99999999999989
 31
0.0
  0
ARC
  5
8A
102
{ACAD_REACTORS
330
A6
102
}
330
47
100
AcDbEntity
  8
1
  6
Continuous
 62
     7
100
AcDbCircle
 10
195.6763006887428
 20
10.84673060906323
 30
0.0
 40
0.3333333333333172
100
AcDbArc
 50
299.9816393688334
 51
119.9816393688365
  0
ARC
  5
8B
102
{ACAD_REACTORS
330
A6
102
}
330
47
100
AcDbEntity
  8
1
  6
Continuous
 62
     7
100
AcDbCircle
 10
195.6763006887428
 20
12.5
 30
0.0
 40
0.3333333333333695
100
AcDbArc
 50
270.0
 51
90.0
  0
ARC
  5
8C
102
{ACAD_REACTORS
330
A6
102
}
330
47
100
AcDbEntity
  8
1
  6
Continuous
 62
     7
100
AcDbCircle
 10
195.6763006887428
 20
14.15326939093666
 30
0.0
 40
0.3333333333333613
100
AcDbArc
 50
240.018360631154
 51
60.01836063115638
  0
ARC
  5
8D
102
{ACAD_REACTORS
330
A7
102
}
330
47
100
AcDbEntity
  8
1
  6
Continuous
 62
     7
100
AcDbCircle
 10
187.6763006887428
 20
10.84673060906323
 30
0.0
 40
0.3333333333333997
100
AcDbArc
 50
180.0
 51
0.0
  0
ARC
  5
8E
102
{ACAD_REACTORS
330
A7
102
}
330
47
100
AcDbEntity
  8
1
  6
Continuous
 62
     7
100
AcDbCircle
 10
187.6763006887428
 20
14.15326939093666
 30
0.0
 40
0.3333333333333144
100
AcDbArc
 50
0.0
 51
180.0
  0
ARC
  5
8F
102
{ACAD_REACTORS
330
A8
102
}
330
47
100
AcDbEntity
  8
1
  6
Continuous
 62
     7
100
AcDbCircle
 10
191.3429673554094
 20
8.7313459936787
 30
0.0
 40
0.3333333333333567
100
AcDbArc
 50
240.0183606311536
 51
60.01836063113668
  0
ARC
  5
90
102
{ACAD_REACTORS
330
A8
102
}
330
47
100
AcDbEntity
  8
1
  6
Continuous
 62
     7
100
AcDbCircle
 10
189.0096340220761
 20
14.92250016016737
 30
0.0
 40
0.333333333333286
100
AcDbArc
 50
0.0
 51
180.0
  0
ARC
  5
91
102
{ACAD_REACTORS
330
A9
102
}
330
47
100
AcDbEntity
  8
1
  6
Continuous
 62
     7
100
AcDbCircle
 10
193.0780011429341
 20
15.73121731203457
 30
0.0
 40
0.2649662124752865
100
AcDbArc
 50
0.0
 51
149.9999999999716
  0
ARC
  5
92
102
{ACAD_REACTORS
330
A9
102
}
330
47
100
AcDbEntity
  8
1
  6
Continuous
 62
     7
100
AcDbCircle
 10
193.0096340220762
 20
9.3082690706018
 30
0.0
 40
0.3333333333333997
100
AcDbArc
 50
180.0
 51
0.0
  0
ARC
  5
93
102
{ACAD_REACTORS
330
A9
102
}
330
47
100
AcDbEntity
  8
1
  6
Continuous
 62
     7
100
AcDbCircle
 10
190.3429673554094
 20
10.84758507263291
 30
0.0
 40
0.333333333333286
100
AcDbArc
 50
180.0
 51
0.0
  0
ARC
  5
94
102
{ACAD_REACTORS
330
A9
102
}
330
47
100
AcDbEntity
  8
1
  6
Continuous
 62
     7
100
AcDbCircle
 10
190.2746002345514
 20
15.73121731203457
 30
0.0
 40
0.2649662124752854
100
AcDbArc
 50
30.00000000001921
 51
180.0
  0
ARC
  5
95
102
{ACAD_REACTORS
330
A6
102
}
330
47
100
AcDbEntity
  8
1
  6
Continuous
 62
     7
100
AcDbCircle
 10
194.3429673554094
 20
10.07749983983263
 30
0.0
 40
0.3333333333332007
100
AcDbArc
 50
180.0
 51
299.981639368863
  0
ARC
  5
96
102
{ACAD_REACTORS
330
A6
102
}
330
47
100
AcDbEntity
  8
1
  6
Continuous
 62
     7
100
AcDbCircle
 10
194.3429673554094
 20
14.92250016016737
 30
0.0
 40
0.3333333333334166
100
AcDbArc
 50
60.01836063113698
 51
180.0
  0
ARC
  5
97
330
47
100
AcDbEntity
  8
1
  6
Continuous
 62
     7
100
AcDbCircle
 10
200.0094488883027
 20
12.5
 30
0.0
 40
0.166666666666687
100
AcDbArc
 50
299.9816393688503
 51
60.01836063112923
  0
ARC
  5
98
330
47
100
AcDbEntity
  8
1
  6
Continuous
 62
     7
100
AcDbCircle
 10
183.3431524891829
 20
12.5
 30
0.0
 40
0.1666666666666265
100
AcDbArc
 50
119.9816393688962
 51
240.0183606311243
  0
ARC
  5
99
102
{ACAD_REACTORS
330
A8
102
}
330
47
100
AcDbEntity
  8
1
  6
Continuous
 62
     7
100
AcDbCircle
 10
189.3429673554094
 20
10.2700211480327
 30
0.0
 40
0.6666666666666003
100
AcDbArc
 50
180.0000000000104
 51
240.0183606311601
  0
ARC
  5
9A
102
{ACAD_REACTORS
330
A9
102
}
330
47
100
AcDbEntity
  8
1
  6
Continuous
 62
     7
100
AcDbCircle
 10
191.6763006887428
 20
12.83333333333326
 30
0.0
 40
0.166666666666709
100
AcDbArc
 50
209.9999999999622
 51
330.0000000000231
  0
MTEXT
  5
9C
330
47
100
AcDbEntity
  8
1
 62
     7
100
AcDbMText
 10
169.6763006887428
 20
10.06063942075605
 30
0.0
 40
4.5
 41
0.0
 71
     5
 72
     1
  1
1:1
  7
CONVERTER_11
 73
     1
 44
1.32052821128451
  0
MTEXT
  5
9D
330
47
100
AcDbEntity
  8
1
 62
     7
100
AcDbMText
 10
169.6763006887428
 20
16.26063942075598
 30
0.0
 40
3.0
 41
0.0
 71
     5
 72
     1
  1
Scale
  7
CONVERTER_11
 73
     1
 44
1.32052821128451
  0
MTEXT
  5
9E
330
47
100
AcDbEntity
  8
1
 62
     7
100
AcDbMText
 10
57.27630068874282
 20
12.5
 30
0.0
 40
4.5
 41
0.0
 71
     4
 72
     1
  1
CX 01 J8IM\PMale modular, IDC, RJ45 Cat.6
  7
CONVERTER_11
 73
     1
 44
0.90036014405762
  0
MTEXT
  5
9F
330
47
100
AcDbEntity
  8
1
 62
     7
100
AcDbMText
 10
32.60000000000014
 20
7.49999999999989
 30
0.0
 40
3.0
 41
0.0
 71
     4
 72
     1
  1
Radice
  7
CONVERTER_11
 73
     1
 44
1.32052821128451
  0
MTEXT
  5
A0
330
47
100
AcDbEntity
  8
1
 62
     7
100
AcDbMText
 10
22.00000000000011
 20
7.49999999999989
 30
0.0
 40
3.0
 41
0.0
 71
     4
 72
     1
  1
Sign.
  7
CONVERTER_11
 73
     1
 44
1.32052821128451
  0
MTEXT
  5
A1
330
47
100
AcDbEntity
  8
1
 62
     7
100
AcDbMText
 10
32.60000000000014
 20
12.49999999999989
 30
0.0
 40
3.0
 41
0.0
 71
     4
 72
     1
  1
27/01/14
  7
CONVERTER_11
 73
     1
 44
1.32052821128451
  0
MTEXT
  5
A2
330
47
100
AcDbEntity
  8
1
 62
     7
100
AcDbMText
 10
22.00000000000011
 20
12.49999999999989
 30
0.0
 40
3.0
 41
0.0
 71
     4
 72
     1
  1
Date
  7
CONVERTER_11
 73
     1
 44
1.32052821128451
  0
MTEXT
  5
A3
330
47
100
AcDbEntity
  8
1
 62
     7
100
AcDbMText
 10
16.0
 20
151.4999999999998
 30
0.0
 40
4.0
 41
0.0
 71
     5
 72
     1
  1
Diritti riservati      All rights reserved
  7
CONVERTER_11
 11
0.0
 21
1.0
 31
0.0
 73
     1
 44
1.32052821128451
  0
MTEXT
  5
A5
330
47
100
AcDbEntity
  8
1
 62
     7
100
AcDbMText
 10
36.00000000000011
 20
17.49999999999994
 30
0.0
 40
2.5
 41
0.0
 71
     5
 72
     1
  1
dimensions in mm
  7
CONVERTER_12
 73
     1
 44
0.60024009603842
  0
HATCH
  5
A6
330
47
100
AcDbEntity
  8
1
  6
Continuous
 62
     7
100
AcDbHatch
 10
0.0
 20
0.0
 30
0.0
210
0.0
220
0.0
230
1.0
  2
SOLID
 70
     1
 71
     1
 91
        1
 92
        1
 93
       14
 72
     2
 10
194.3429673554094
 20
14.92250016016737
 40
0.3333333333334166
 50
60.01836063113698
 51
180.0
 73
     1
 72
     1
 10
194.0096340220762
 20
14.92250016016737
 11
194.0096340220762
 21
10.07749983983263
 72
     2
 10
194.3429673554094
 20
10.07749983983263
 40
0.3333333333332007
 50
180.0
 51
299.981639368863
 73
     1
 72
     1
 10
194.5095415065727
 20
9.78877131114973
 11
195.8428748399059
 21
10.55800208038033
 72
     2
 10
195.6763006887428
 20
10.84673060906323
 40
0.3333333333333172
 50
299.9816393688334
 51
479.9816393688365
 73
     1
 72
     1
 10
195.5097265375796
 20
11.13545913774624
 11
194.6763006887428
 21
10.65463653264794
 72
     1
 10
194.6763006887428
 20
10.65463653264794
 11
194.6763006887428
 21
12.16666666666663
 72
     1
 10
194.6763006887428
 20
12.16666666666663
 11
195.6763006887428
 21
12.16666666666663
 72
     2
 10
195.6763006887428
 20
12.5
 40
0.3333333333333695
 50
270.0
 51
450.0
 73
     1
 72
     1
 10
195.6763006887428
 20
12.83333333333326
 11
194.6763006887428
 21
12.83333333333326
 72
     1
 10
194.6763006887428
 20
12.83333333333326
 11
194.6763006887428
 21
14.34536346735195
 72
     1
 10
194.6763006887428
 20
14.34536346735195
 11
195.5097265375796
 21
13.86454086225376
 72
     2
 10
195.6763006887428
 20
14.15326939093666
 40
0.3333333333333613
 50
240.018360631154
 51
420.0183606311564
 73
     1
 72
     1
 10
195.8428748399059
 20
14.44199791961944
 11
194.5095415065727
 21
15.21122868885027
 97
       14
330
8C
330
63
330
62
330
61
330
8B
330
60
330
5F
330
5E
330
8A
330
5D
330
95
330
7B
330
96
330
64
 75
     0
 76
     1
 98
        1
 10
0.0
 20
0.0
  0
HATCH
  5
A7
330
47
100
AcDbEntity
  8
1
  6
Continuous
 62
     7
100
AcDbHatch
 10
0.0
 20
0.0
 30
0.0
210
0.0
220
0.0
230
1.0
  2
SOLID
 70
     1
 71
     1
 91
        1
 92
        1
 93
        5
 72
     2
 10
187.6763006887428
 20
14.15326939093666
 40
0.3333333333333144
 50
0.0
 51
180.0
 73
     1
 72
     1
 10
187.3429673554094
 20
14.15326939093666
 11
187.3429673554094
 21
10.84673060906323
 72
     2
 10
187.6763006887428
 20
10.84673060906323
 40
0.3333333333333997
 50
180.0
 51
360.0
 73
     1
 72
     1
 10
188.0096340220761
 20
10.84673060906323
 11
188.0096340220761
 21
11.0392519172633
 72
     1
 10
188.0096340220761
 20
11.0392519172633
 11
188.0096340220761
 21
14.15326939093666
 97
        5
330
8E
330
65
330
8D
330
66
330
67
 75
     0
 76
     1
 98
        1
 10
0.0
 20
0.0
  0
HATCH
  5
A8
330
47
100
AcDbEntity
  8
1
  6
Continuous
 62
     7
100
AcDbHatch
 10
0.0
 20
0.0
 30
0.0
210
0.0
220
0.0
230
1.0
  2
SOLID
 70
     1
 71
     1
 91
        1
 92
        1
 93
        7
 72
     2
 10
189.0096340220761
 20
14.92250016016737
 40
0.333333333333286
 50
0.0
 51
180.0
 73
     1
 72
     1
 10
188.6763006887428
 20
14.92250016016737
 11
188.6763006887428
 21
10.27002114803258
 72
     2
 10
189.3429673554094
 20
10.2700211480327
 40
0.6666666666666003
 50
180.0000000000104
 51
240.0183606311601
 73
     1
 72
     1
 10
189.0098190530831
 20
9.692564090666906
 11
191.1763932042462
 21
8.442617464995806
 72
     2
 10
191.3429673554094
 20
8.731345993678701
 40
0.3333333333333567
 50
240.0183606311536
 51
420.0183606311367
 73
     1
 72
     1
 10
191.5095415065727
 20
9.020074522361597
 11
189.3429673554094
 21
10.2700211480327
 72
     1
 10
189.3429673554094
 20
10.2700211480327
 11
189.3429673554094
 21
14.92250016016737
 97
        7
330
90
330
6B
330
99
330
68
330
8F
330
69
330
6A
 75
     0
 76
     1
 98
        1
 10
0.0
 20
0.0
  0
HATCH
  5
A9
330
47
100
AcDbEntity
  8
1
  6
Continuous
 62
     7
100
AcDbHatch
 10
0.0
 20
0.0
 30
0.0
210
0.0
220
0.0
230
1.0
  2
SOLID
 70
     1
 71
     1
 91
        1
 92
        1
 93
       16
 72
     2
 10
193.0780011429341
 20
15.73121731203457
 40
0.2649662124752865
 50
210.0000000000284
 51
360.0
 73
     0
 72
     1
 10
193.3429673554094
 20
15.73121731203457
 11
193.3429673554094
 21
9.308269070601796
 72
     2
 10
193.0096340220762
 20
9.308269070601796
 40
0.3333333333333997
 50
0.0
 51
180.0
 73
     0
 72
     1
 10
192.6763006887428
 20
9.308269070601796
 11
192.6763006887428
 21
12.5
 72
     1
 10
192.6763006887428
 20
12.5
 11
192.6763006887428
 21
14.23205080756884
 72
     1
 10
192.6763006887428
 20
14.23205080756884
 11
191.8206382560402
 21
12.75
 72
     2
 10
191.6763006887428
 20
12.83333333333326
 40
0.166666666666709
 50
29.99999999997686
 51
150.0000000000378
 73
     0
 72
     1
 10
191.5319631214453
 20
12.75
 11
190.6763006887428
 21
14.23205080756884
 72
     1
 10
190.6763006887428
 20
14.23205080756884
 11
190.6763006887428
 21
12.5
 72
     1
 10
190.6763006887428
 20
12.5
 11
190.6763006887428
 21
10.84758507263291
 72
     2
 10
190.3429673554094
 20
10.84758507263291
 40
0.333333333333286
 50
0.0
 51
180.0
 73
     0
 72
     1
 10
190.0096340220761
 20
10.84758507263291
 11
190.0096340220761
 21
12.5
 72
     1
 10
190.0096340220761
 20
12.5
 11
190.0096340220761
 21
15.73121731203457
 72
     2
 10
190.2746002345514
 20
15.73121731203457
 40
0.2649662124752854
 50
180.0
 51
329.9999999999808
 73
     0
 72
     1
 10
190.5040677056995
 20
15.86370041827229
 11
191.6763006887428
 21
13.83333333333326
 72
     1
 10
191.6763006887428
 20
13.83333333333326
 11
192.8485336717861
 21
15.86370041827229
 97
       16
330
71
330
94
330
72
330
70
330
93
330
6F
330
77
330
78
330
9A
330
79
330
7A
330
6E
330
92
330
6D
330
91
330
6C
 75
     0
 76
     1
 98
        1
 10
0.0
 20
0.0
  0
ENDBLK
  5
49
330
47
100
AcDbEntity
  8
0
100
AcDbBlockEnd
  0
BLOCK
  5
4C
330
4A
100
AcDbEntity
  8
0
100
AcDbBlockBegin
  2
A4
 70
     0
 10
210.0000000000001
 20
0.0
 30
0.0
  3
A4
  1

  0
INSERT
  5
4B
330
4A
100
AcDbEntity
  8
1
100
AcDbBlockReference
  2
_formato_A4
 10
210.0000000000001
 20
0.0
 30
0.0
  0
ENDBLK
  5
4D
330
4A
100
AcDbEntity
  8
0
100
AcDbBlockEnd
  0
BLOCK
  5
2E9
330
2E1
100
AcDbEntity
  8
0
100
AcDbBlockBegin
  2
*D3
 70
     1
 10
0.0
 20
0.0
 30
0.0
  3
*D3
  1

  0
LINE
  5
2E2
330
2E1
100
AcDbEntity
  8
1
  6
Continuous
 62
     2
100
AcDbLine
 10
174.022031142599
 20
188.1259852874484
 30
0.0
 11
174.022031142599
 21
124.5259852874487
 31
0.0
  0
LINE
  5
2E3
330
2E1
100
AcDbEntity
  8
1
  6
Continuous
 62
     2
100
AcDbLine
 10
157.5220311425994
 20
124.5259852874487
 30
0.0
 11
175.022031142599
 21
124.5259852874487
 31
0.0
  0
LINE
  5
2E4
330
2E1
100
AcDbEntity
  8
1
  6
Continuous
 62
     2
100
AcDbLine
 10
147.4720311425988
 20
188.1259852874484
 30
0.0
 11
175.022031142599
 21
188.1259852874484
 31
0.0
  0
SOLID
  5
2E5
330
2E1
100
AcDbEntity
  8
1
 62
     2
100
AcDbTrace
 10
174.4169886353612
 20
185.1259852874484
 30
0.0
 11
173.6270736498368
 21
185.1259852874484
 31
0.0
 12
174.022031142599
 22
188.1259852874484
 32
0.0
 13
174.022031142599
 23
188.1259852874484
 33
0.0
  0
SOLID
  5
2E6
330
2E1
100
AcDbEntity
  8
1
 62
     2
100
AcDbTrace
 10
173.6270736498368
 20
127.5259852874487
 30
0.0
 11
174.4169886353612
 21
127.5259852874487
 31
0.0
 12
174.022031142599
 22
124.5259852874487
 32
0.0
 13
174.022031142599
 23
124.5259852874487
 33
0.0
  0
MTEXT
  5
2E8
330
2E1
100
AcDbEntity
  8
1
 62
     4
100
AcDbMText
 10
171.722031142599
 20
152.2009852874486
 30
0.0
 40
3.0
 41
0.0
 71
     7
 72
     1
  1
63,6
  7
CONVERTER_13
 11
0.0
 21
1.0
 31
0.0
 73
     1
 44
0.60024009603842
  0
ENDBLK
  5
2EA
330
2E1
100
AcDbEntity
  8
0
100
AcDbBlockEnd
  0
BLOCK
  5
2F4
330
2ED
100
AcDbEntity
  8
0
100
AcDbBlockBegin
  2
*D4
 70
     1
 10
0.0
 20
0.0
 30
0.0
  3
*D4
  1

  0
LINE
  5
2EE
330
2ED
100
AcDbEntity
  8
1
  6
Continuous
 62
     2
100
AcDbLine
 10
127.0220311425989
 20
198.1259852874484
 30
0.0
 11
157.0220311425993
 21
198.1259852874484
 31
0.0
  0
LINE
  5
2EF
330
2ED
100
AcDbEntity
  8
1
  6
Continuous
 62
     2
100
AcDbLine
 10
157.0220311425993
 20
159.2259852874485
 30
0.0
 11
157.0220311425993
 21
199.1259852874484
 31
0.0
  0
LINE
  5
2F0
330
2ED
100
AcDbEntity
  8
1
  6
Continuous
 62
     2
100
AcDbLine
 10
127.0220311425989
 20
159.2259852874485
 30
0.0
 11
127.0220311425989
 21
199.1259852874484
 31
0.0
  0
SOLID
  5
2F1
330
2ED
100
AcDbEntity
  8
1
 62
     2
100
AcDbTrace
 10
130.0220311425989
 20
198.5209427802106
 30
0.0
 11
130.0220311425989
 21
197.7310277946862
 31
0.0
 12
127.0220311425989
 22
198.1259852874484
 32
0.0
 13
127.0220311425989
 23
198.1259852874484
 33
0.0
  0
SOLID
  5
2F2
330
2ED
100
AcDbEntity
  8
1
 62
     2
100
AcDbTrace
 10
154.0220311425993
 20
197.7310277946862
 30
0.0
 11
154.0220311425993
 21
198.5209427802106
 31
0.0
 12
157.0220311425993
 22
198.1259852874484
 32
0.0
 13
157.0220311425993
 23
198.1259852874484
 33
0.0
  0
MTEXT
  5
2F3
330
2ED
100
AcDbEntity
  8
1
 62
     4
100
AcDbMText
 10
139.7720311425991
 20
200.1259852874484
 30
0.0
 40
3.0
 41
0.0
 71
     7
 72
     1
  1
30
  7
CONVERTER_13
 11
0.9999999999970619
 21
2.424068405545306E-6
 31
0.0
 73
     1
 44
0.60024009603842
  0
ENDBLK
  5
2F5
330
2ED
100
AcDbEntity
  8
0
100
AcDbBlockEnd
  0
BLOCK
  5
2FF
330
2F8
100
AcDbEntity
  8
0
100
AcDbBlockBegin
  2
*D5
 70
     1
 10
0.0
 20
0.0
 30
0.0
  3
*D5
  1

  0
LINE
  5
2F9
330
2F8
100
AcDbEntity
  8
1
  6
Continuous
 62
     2
100
AcDbLine
 10
71.8220313096254
 20
198.1259852874484
 30
0.0
 11
86.52203130962545
 21
198.1259852874484
 31
0.0
  0
LINE
  5
2FA
330
2F8
100
AcDbEntity
  8
1
  6
Continuous
 62
     2
100
AcDbLine
 10
86.52203130962545
 20
159.2259852874484
 30
0.0
 11
86.52203130962545
 21
199.1259852874484
 31
0.0
  0
LINE
  5
2FB
330
2F8
100
AcDbEntity
  8
1
  6
Continuous
 62
     2
100
AcDbLine
 10
71.8220313096254
 20
159.2259852874484
 30
0.0
 11
71.8220313096254
 21
199.1259852874484
 31
0.0
  0
SOLID
  5
2FC
330
2F8
100
AcDbEntity
  8
1
 62
     2
100
AcDbTrace
 10
74.8220313096254
 20
198.5209427802106
 30
0.0
 11
74.8220313096254
 21
197.7310277946862
 31
0.0
 12
71.8220313096254
 22
198.1259852874484
 32
0.0
 13
71.8220313096254
 23
198.1259852874484
 33
0.0
  0
SOLID
  5
2FD
330
2F8
100
AcDbEntity
  8
1
 62
     2
100
AcDbTrace
 10
83.52203130962545
 20
197.7310277946862
 30
0.0
 11
83.52203130962545
 21
198.5209427802106
 31
0.0
 12
86.52203130962545
 22
198.1259852874484
 32
0.0
 13
86.52203130962545
 23
198.1259852874484
 33
0.0
  0
MTEXT
  5
2FE
330
2F8
100
AcDbEntity
  8
1
 62
     4
100
AcDbMText
 10
75.49703130962543
 20
200.4259852874484
 30
0.0
 40
3.0
 41
0.0
 71
     7
 72
     1
  1
14,7
  7
CONVERTER_13
 11
0.9999999999970619
 21
2.424068405545306E-6
 31
0.0
 73
     1
 44
0.60024009603842
  0
ENDBLK
  5
300
330
2F8
100
AcDbEntity
  8
0
100
AcDbBlockEnd
  0
ENDSEC
  0
SECTION
  2
ENTITIES
  0
INSERT
  5
4E
330
1F
100
AcDbEntity
  8
0
100
AcDbBlockReference
  2
A4
 10
210.0000000000001
 20
0.0
 30
0.0
  0
LINE
  5
AA
330
1F
100
AcDbEntity
  8
0
  6
Continuous
 62
     7
100
AcDbLine
 10
71.8220313096254
 20
224.6259830721009
 30
0.0
 11
71.8220313096254
 21
254.6259830721013
 31
0.0
  0
LINE
  5
AB
330
1F
100
AcDbEntity
  8
0
  6
Continuous
 62
     7
100
AcDbLine
 10
85.87203130962541
 20
228.625983072101
 30
0.0
 11
85.87203130962541
 21
250.625983072101
 31
0.0
  0
LINE
  5
AC
330
1F
100
AcDbEntity
  8
0
  6
Continuous
 62
     7
100
AcDbLine
 10
80.3220313096254
 20
228.625983072101
 30
0.0
 11
80.3220313096254
 21
231.1259830721012
 31
0.0
  0
LINE
  5
AD
330
1F
100
AcDbEntity
  8
0
  6
Continuous
 62
     7
100
AcDbLine
 10
87.42203130962542
 20
230.9759830721009
 30
0.0
 11
86.52203130962545
 21
230.9759830721009
 31
0.0
  0
LINE
  5
AE
330
1F
100
AcDbEntity
  8
0
  6
Continuous
 62
     7
100
AcDbLine
 10
86.52203130962545
 20
229.9759830721009
 30
0.0
 11
86.52203130962545
 21
230.9759830721009
 31
0.0
  0
LINE
  5
AF
330
1F
100
AcDbEntity
  8
0
  6
Continuous
 62
     7
100
AcDbLine
 10
87.42203130962542
 20
229.2759830721009
 30
0.0
 11
86.52203130962545
 21
229.2759830721009
 31
0.0
  0
LINE
  5
B0
330
1F
100
AcDbEntity
  8
0
  6
Continuous
 62
     7
100
AcDbLine
 10
86.52203130962539
 20
248.2759830721009
 30
0.0
 11
86.52203130962539
 21
249.2759830721009
 31
0.0
  0
LINE
  5
B1
330
1F
100
AcDbEntity
  8
0
  6
Continuous
 62
     7
100
AcDbLine
 10
86.52203130962545
 20
230.9759830721009
 30
0.0
 11
86.52203130962539
 21
248.2759830721009
 31
0.0
  0
LINE
  5
B2
330
1F
100
AcDbEntity
  8
0
  6
Continuous
 62
     7
100
AcDbLine
 10
86.52203130962539
 20
249.2759830721009
 30
0.0
 11
86.52203130962539
 21
249.9759830721008
 31
0.0
  0
LINE
  5
B3
330
1F
100
AcDbEntity
  8
0
  6
Continuous
 62
     7
100
AcDbLine
 10
82.56958949849025
 20
245.575983072101
 30
0.0
 11
82.56958949849025
 21
233.675983072101
 31
0.0
  0
LINE
  5
B4
330
1F
100
AcDbEntity
  8
0
  6
Continuous
 62
     7
100
AcDbLine
 10
79.3220313096254
 20
249.1259830721011
 30
0.0
 11
72.8220313096254
 21
249.1259830721011
 31
0.0
  0
LINE
  5
B5
330
1F
100
AcDbEntity
  8
0
  6
Continuous
 62
     7
100
AcDbLine
 10
87.42203130962542
 20
249.2759830721009
 30
0.0
 11
86.52203130962539
 21
249.2759830721009
 31
0.0
  0
LINE
  5
B6
330
1F
100
AcDbEntity
  8
0
  6
Continuous
 62
     7
100
AcDbLine
 10
75.88958949849024
 20
243.8259830721007
 30
0.0
 11
82.56958949849025
 21
243.8259830721007
 31
0.0
  0
LINE
  5
B7
330
1F
100
AcDbEntity
  8
0
  6
Continuous
 62
     7
100
AcDbLine
 10
75.88958949849024
 20
245.3759830721007
 30
0.0
 11
82.56958949849025
 21
245.3759830721007
 31
0.0
  0
LINE
  5
B8
330
1F
100
AcDbEntity
  8
0
  6
Continuous
 62
     7
100
AcDbLine
 10
75.88958949849024
 20
245.5759830721007
 30
0.0
 11
82.56958949849025
 21
245.575983072101
 31
0.0
  0
LINE
  5
B9
330
1F
100
AcDbEntity
  8
0
  6
Continuous
 62
     7
100
AcDbLine
 10
72.47203130962544
 20
248.1259830721011
 30
0.0
 11
80.3220313096254
 21
248.1259830721011
 31
0.0
  0
LINE
  5
BA
330
1F
100
AcDbEntity
  8
0
  6
Continuous
 62
     7
100
AcDbLine
 10
86.52203130962539
 20
248.2759830721009
 30
0.0
 11
87.42203130962542
 21
248.2759830721009
 31
0.0
  0
LINE
  5
BB
330
1F
100
AcDbEntity
  8
0
  6
Continuous
 62
     7
100
AcDbLine
 10
75.76958949849023
 20
245.575983072101
 30
0.0
 11
75.88958949849024
 21
245.5759830721007
 31
0.0
  0
LINE
  5
BC
330
1F
100
AcDbEntity
  8
0
  6
Continuous
 62
     7
100
AcDbLine
 10
85.52203130962539
 20
225.625983072101
 30
0.0
 11
72.8220313096254
 21
225.625983072101
 31
0.0
  0
LINE
  5
BD
330
1F
100
AcDbEntity
  8
0
  6
Continuous
 62
     7
100
AcDbLine
 10
72.8220313096254
 20
230.1259830721012
 30
0.0
 11
72.8220313096254
 21
225.625983072101
 31
0.0
  0
LINE
  5
BE
330
1F
100
AcDbEntity
  8
0
  6
Continuous
 62
     7
100
AcDbLine
 10
85.52203130962539
 20
227.625983072101
 30
0.0
 11
79.3220313096254
 21
227.625983072101
 31
0.0
  0
LINE
  5
BF
330
1F
100
AcDbEntity
  8
0
  6
Continuous
 62
     7
100
AcDbLine
 10
85.52203130962539
 20
225.625983072101
 30
0.0
 11
85.52203130962539
 21
227.625983072101
 31
0.0
  0
LINE
  5
C0
330
1F
100
AcDbEntity
  8
0
  6
Continuous
 62
     7
100
AcDbLine
 10
79.3220313096254
 20
230.1259830721012
 30
0.0
 11
79.3220313096254
 21
227.625983072101
 31
0.0
  0
LINE
  5
C1
330
1F
100
AcDbEntity
  8
0
  6
Continuous
 62
     7
100
AcDbLine
 10
71.8220313096254
 20
224.6259830721009
 30
0.0
 11
75.07203130962591
 21
224.6259830721007
 31
0.0
  0
LINE
  5
C2
330
1F
100
AcDbEntity
  8
0
  6
Continuous
 62
     7
100
AcDbLine
 10
82.7720313096259
 20
224.6259830721007
 30
0.0
 11
83.2720313096259
 21
224.6259830721007
 31
0.0
  0
LINE
  5
C3
330
1F
100
AcDbEntity
  8
0
  6
Continuous
 62
     7
100
AcDbLine
 10
83.2720313096259
 20
224.6259830721007
 30
0.0
 11
86.52203130962545
 21
224.6259830721009
 31
0.0
  0
LINE
  5
C4
330
1F
100
AcDbEntity
  8
0
  6
Continuous
 62
     2
100
AcDbLine
 10
76.5720313096258
 20
254.6259830721012
 30
0.0
 11
76.5720313096258
 21
256.6259830721008
 31
0.0
  0
LINE
  5
C5
330
1F
100
AcDbEntity
  8
0
  6
Continuous
 62
     7
100
AcDbLine
 10
81.77203130962585
 20
256.6259830721008
 30
0.0
 11
76.5720313096258
 21
256.6259830721008
 31
0.0
  0
LINE
  5
C6
330
1F
100
AcDbEntity
  8
0
  6
Continuous
 62
     7
100
AcDbLine
 10
82.27203130962585
 20
256.6259830721008
 30
0.0
 11
82.27203130962585
 21
254.6259830721012
 31
0.0
  0
LINE
  5
C7
330
1F
100
AcDbEntity
  8
0
  6
Continuous
 62
     7
100
AcDbLine
 10
86.52203130962539
 20
250.9759830721008
 30
0.0
 11
86.52203130962545
 21
254.6259830721013
 31
0.0
  0
LINE
  5
C8
330
1F
100
AcDbEntity
  8
0
  6
Continuous
 62
     7
100
AcDbLine
 10
79.3220313096254
 20
251.625983072101
 30
0.0
 11
85.52203130962539
 21
251.625983072101
 31
0.0
  0
LINE
  5
C9
330
1F
100
AcDbEntity
  8
0
  6
Continuous
 62
     7
100
AcDbLine
 10
87.42203130962542
 20
249.9759830721008
 30
0.0
 11
86.52203130962539
 21
249.9759830721008
 31
0.0
  0
LINE
  5
CA
330
1F
100
AcDbEntity
  8
0
  6
Continuous
 62
     7
100
AcDbLine
 10
87.42203130962542
 20
250.9759830721008
 30
0.0
 11
87.42203130962542
 21
249.9759830721008
 31
0.0
  0
LINE
  5
CB
330
1F
100
AcDbEntity
  8
0
  6
Continuous
 62
     7
100
AcDbLine
 10
85.87203130962541
 20
250.625983072101
 30
0.0
 11
80.3220313096254
 21
250.625983072101
 31
0.0
  0
LINE
  5
CC
330
1F
100
AcDbEntity
  8
0
  6
Continuous
 62
     7
100
AcDbLine
 10
86.52203130962539
 20
249.9759830721008
 30
0.0
 11
86.52203130962539
 21
250.9759830721008
 31
0.0
  0
LINE
  5
CD
330
1F
100
AcDbEntity
  8
0
  6
Continuous
 62
     2
100
AcDbLine
 10
81.77203130962585
 20
256.6259830721008
 30
0.0
 11
81.77203130962585
 21
254.6259830721012
 31
0.0
  0
LINE
  5
CE
330
1F
100
AcDbEntity
  8
0
  6
Continuous
 62
     7
100
AcDbLine
 10
82.27203130962585
 20
256.6259830721008
 30
0.0
 11
81.77203130962585
 21
256.6259830721008
 31
0.0
  0
LINE
  5
CF
330
1F
100
AcDbEntity
  8
0
  6
Continuous
 62
     7
100
AcDbLine
 10
76.0720313096258
 20
256.6259830721008
 30
0.0
 11
76.5720313096258
 21
256.6259830721008
 31
0.0
  0
LINE
  5
D0
330
1F
100
AcDbEntity
  8
0
  6
Continuous
 62
     7
100
AcDbLine
 10
76.0720313096258
 20
254.6259830721012
 30
0.0
 11
76.0720313096258
 21
256.6259830721008
 31
0.0
  0
LINE
  5
D1
330
1F
100
AcDbEntity
  8
0
  6
Continuous
 62
     7
100
AcDbLine
 10
80.3220313096254
 20
248.1259830721011
 30
0.0
 11
80.3220313096254
 21
250.625983072101
 31
0.0
  0
LINE
  5
D2
330
1F
100
AcDbEntity
  8
0
  6
Continuous
 62
     7
100
AcDbLine
 10
87.42203130962542
 20
248.2759830721009
 30
0.0
 11
87.42203130962542
 21
249.2759830721009
 31
0.0
  0
LINE
  5
D3
330
1F
100
AcDbEntity
  8
0
  6
Continuous
 62
     7
100
AcDbLine
 10
85.52203130962539
 20
253.6259830721014
 30
0.0
 11
72.8220313096254
 21
253.6259830721014
 31
0.0
  0
LINE
  5
D4
330
1F
100
AcDbEntity
  8
0
  6
Continuous
 62
     7
100
AcDbLine
 10
85.52203130962539
 20
251.625983072101
 30
0.0
 11
85.52203130962539
 21
253.6259830721014
 31
0.0
  0
LINE
  5
D5
330
1F
100
AcDbEntity
  8
0
  6
Continuous
 62
     7
100
AcDbLine
 10
86.52203130962539
 20
250.9759830721008
 30
0.0
 11
87.42203130962542
 21
250.9759830721008
 31
0.0
  0
LINE
  5
D6
330
1F
100
AcDbEntity
  8
0
  6
Continuous
 62
     7
100
AcDbLine
 10
82.27203130962585
 20
254.6259830721012
 30
0.0
 11
81.77203130962585
 21
254.6259830721012
 31
0.0
  0
LINE
  5
D7
330
1F
100
AcDbEntity
  8
0
  6
Continuous
 62
     7
100
AcDbLine
 10
86.52203130962545
 20
254.6259830721013
 30
0.0
 11
82.27203130962585
 21
254.6259830721012
 31
0.0
  0
LINE
  5
D8
330
1F
100
AcDbEntity
  8
0
  6
Continuous
 62
     7
100
AcDbLine
 10
76.0720313096258
 20
254.6259830721012
 30
0.0
 11
71.8220313096254
 21
254.6259830721013
 31
0.0
  0
LINE
  5
D9
330
1F
100
AcDbEntity
  8
0
  6
Continuous
 62
     7
100
AcDbLine
 10
76.5720313096258
 20
254.6259830721012
 30
0.0
 11
76.0720313096258
 21
254.6259830721012
 31
0.0
  0
LINE
  5
DA
330
1F
100
AcDbEntity
  8
0
  6
Continuous
 62
     7
100
AcDbLine
 10
81.77203130962585
 20
254.6259830721012
 30
0.0
 11
76.5720313096258
 21
254.6259830721012
 31
0.0
  0
LINE
  5
DB
330
1F
100
AcDbEntity
  8
0
  6
Continuous
 62
     7
100
AcDbLine
 10
72.47203130962544
 20
248.1259830721011
 30
0.0
 11
72.47203130962544
 21
231.1259830721012
 31
0.0
  0
LINE
  5
DC
330
1F
100
AcDbEntity
  8
0
  6
Continuous
 62
     7
100
AcDbLine
 10
72.8220313096254
 20
253.6259830721014
 30
0.0
 11
72.8220313096254
 21
249.1259830721011
 31
0.0
  0
LINE
  5
DD
330
1F
100
AcDbEntity
  8
0
  6
Continuous
 62
     7
100
AcDbLine
 10
79.3220313096254
 20
251.625983072101
 30
0.0
 11
79.3220313096254
 21
249.1259830721011
 31
0.0
  0
LINE
  5
DE
330
1F
100
AcDbEntity
  8
0
  6
Continuous
 62
     7
100
AcDbLine
 10
75.76958949849023
 20
242.8009830721011
 30
0.0
 11
73.98958949849026
 21
242.8009830721011
 31
0.0
  0
LINE
  5
DF
330
1F
100
AcDbEntity
  8
0
  6
Continuous
 62
     7
100
AcDbLine
 10
75.76958949849023
 20
245.575983072101
 30
0.0
 11
75.76958949849023
 21
242.8009830721011
 31
0.0
  0
LINE
  5
E0
330
1F
100
AcDbEntity
  8
0
  6
Continuous
 62
     7
100
AcDbLine
 10
75.76958949849023
 20
236.4509830721011
 30
0.0
 11
75.76958949849023
 21
233.675983072101
 31
0.0
  0
LINE
  5
E1
330
1F
100
AcDbEntity
  8
0
  6
Continuous
 62
     7
100
AcDbLine
 10
73.98958949849026
 20
236.4509830721011
 30
0.0
 11
75.76958949849023
 21
236.4509830721011
 31
0.0
  0
LINE
  5
E2
330
1F
100
AcDbEntity
  8
0
  6
Continuous
 62
     7
100
AcDbLine
 10
73.98958949849026
 20
236.4509830721011
 30
0.0
 11
73.98958949849026
 21
242.8009830721011
 31
0.0
  0
LINE
  5
E3
330
1F
100
AcDbEntity
  8
0
  6
Continuous
 62
     7
100
AcDbLine
 10
75.8895894984903
 20
235.4259830721007
 30
0.0
 11
75.88958949849024
 21
243.8259830721007
 31
0.0
  0
LINE
  5
E4
330
1F
100
AcDbEntity
  8
0
  6
Continuous
 62
     7
100
AcDbLine
 10
75.88958949849024
 20
243.8259830721007
 30
0.0
 11
75.88958949849024
 21
245.3759830721007
 31
0.0
  0
LINE
  5
E5
330
1F
100
AcDbEntity
  8
0
  6
Continuous
 62
     7
100
AcDbLine
 10
75.88958949849024
 20
245.3759830721007
 30
0.0
 11
75.88958949849024
 21
245.5759830721007
 31
0.0
  0
LINE
  5
E6
330
1F
100
AcDbEntity
  8
0
  6
Continuous
 62
     7
100
AcDbLine
 10
75.8895894984903
 20
233.8759830721007
 30
0.0
 11
75.8895894984903
 21
235.4259830721007
 31
0.0
  0
LINE
  5
E7
330
1F
100
AcDbEntity
  8
0
  6
Continuous
 62
     7
100
AcDbLine
 10
75.8895894984903
 20
233.6759830721007
 30
0.0
 11
75.8895894984903
 21
233.8759830721007
 31
0.0
  0
LINE
  5
E8
330
1F
100
AcDbEntity
  8
0
  6
Continuous
 62
     7
100
AcDbLine
 10
75.57203130962591
 20
222.6259830721008
 30
0.0
 11
82.7720313096259
 21
222.6259830721008
 31
0.0
  0
LINE
  5
E9
330
1F
100
AcDbEntity
  8
0
  6
Continuous
 62
     7
100
AcDbLine
 10
75.57203130962591
 20
224.6259830721008
 30
0.0
 11
82.7720313096259
 21
224.6259830721007
 31
0.0
  0
LINE
  5
EA
330
1F
100
AcDbEntity
  8
0
  6
Continuous
 62
     7
100
AcDbLine
 10
86.52203130962545
 20
224.6259830721009
 30
0.0
 11
86.52203130962545
 21
228.2759830721009
 31
0.0
  0
LINE
  5
EB
330
1F
100
AcDbEntity
  8
0
  6
Continuous
 62
     7
100
AcDbLine
 10
86.52203130962545
 20
228.2759830721009
 30
0.0
 11
86.52203130962545
 21
229.2759830721009
 31
0.0
  0
LINE
  5
EC
330
1F
100
AcDbEntity
  8
0
  6
Continuous
 62
     7
100
AcDbLine
 10
80.3220313096254
 20
228.625983072101
 30
0.0
 11
85.87203130962541
 21
228.625983072101
 31
0.0
  0
LINE
  5
ED
330
1F
100
AcDbEntity
  8
0
  6
Continuous
 62
     7
100
AcDbLine
 10
87.42203130962542
 20
229.9759830721009
 30
0.0
 11
87.42203130962542
 21
230.9759830721009
 31
0.0
  0
LINE
  5
EE
330
1F
100
AcDbEntity
  8
0
  6
Continuous
 62
     7
100
AcDbLine
 10
86.52203130962545
 20
229.2759830721009
 30
0.0
 11
86.52203130962545
 21
229.9759830721009
 31
0.0
  0
LINE
  5
EF
330
1F
100
AcDbEntity
  8
0
  6
Continuous
 62
     7
100
AcDbLine
 10
86.52203130962545
 20
228.2759830721009
 30
0.0
 11
87.42203130962542
 21
228.2759830721009
 31
0.0
  0
LINE
  5
F0
330
1F
100
AcDbEntity
  8
0
  6
Continuous
 62
     7
100
AcDbLine
 10
87.42203130962542
 20
228.2759830721009
 30
0.0
 11
87.42203130962542
 21
229.2759830721009
 31
0.0
  0
LINE
  5
F1
330
1F
100
AcDbEntity
  8
0
  6
Continuous
 62
     7
100
AcDbLine
 10
75.07203130962591
 20
224.6259830721007
 30
0.0
 11
75.07203130962591
 21
222.6259830721008
 31
0.0
  0
LINE
  5
F2
330
1F
100
AcDbEntity
  8
0
  6
Continuous
 62
     2
100
AcDbLine
 10
82.7720313096259
 20
222.6259830721008
 30
0.0
 11
82.7720313096259
 21
224.6259830721007
 31
0.0
  0
LINE
  5
F3
330
1F
100
AcDbEntity
  8
0
  6
Continuous
 62
     2
100
AcDbLine
 10
75.57203130962591
 20
224.6259830721008
 30
0.0
 11
75.57203130962591
 21
222.6259830721008
 31
0.0
  0
LINE
  5
F4
330
1F
100
AcDbEntity
  8
0
  6
Continuous
 62
     7
100
AcDbLine
 10
82.7720313096259
 20
222.6259830721008
 30
0.0
 11
83.2720313096259
 21
222.6259830721008
 31
0.0
  0
LINE
  5
F5
330
1F
100
AcDbEntity
  8
0
  6
Continuous
 62
     7
100
AcDbLine
 10
83.2720313096259
 20
222.6259830721008
 30
0.0
 11
83.2720313096259
 21
224.6259830721007
 31
0.0
  0
LINE
  5
F6
330
1F
100
AcDbEntity
  8
0
  6
Continuous
 62
     7
100
AcDbLine
 10
75.07203130962591
 20
224.6259830721007
 30
0.0
 11
75.57203130962591
 21
224.6259830721008
 31
0.0
  0
LINE
  5
F7
330
1F
100
AcDbEntity
  8
0
  6
Continuous
 62
     7
100
AcDbLine
 10
75.57203130962591
 20
222.6259830721008
 30
0.0
 11
75.07203130962591
 21
222.6259830721008
 31
0.0
  0
LINE
  5
F8
330
1F
100
AcDbEntity
  8
0
  6
Continuous
 62
     7
100
AcDbLine
 10
82.56958949849025
 20
235.4259830721007
 30
0.0
 11
75.8895894984903
 21
235.4259830721007
 31
0.0
  0
LINE
  5
F9
330
1F
100
AcDbEntity
  8
0
  6
Continuous
 62
     7
100
AcDbLine
 10
75.8895894984903
 20
233.8759830721007
 30
0.0
 11
82.56958949849025
 21
233.8759830721007
 31
0.0
  0
LINE
  5
FA
330
1F
100
AcDbEntity
  8
0
  6
Continuous
 62
     7
100
AcDbLine
 10
82.56958949849025
 20
233.675983072101
 30
0.0
 11
75.8895894984903
 21
233.6759830721007
 31
0.0
  0
LINE
  5
FB
330
1F
100
AcDbEntity
  8
0
  6
Continuous
 62
     7
100
AcDbLine
 10
80.3220313096254
 20
231.1259830721012
 30
0.0
 11
72.47203130962544
 21
231.1259830721012
 31
0.0
  0
LINE
  5
FC
330
1F
100
AcDbEntity
  8
0
  6
Continuous
 62
     7
100
AcDbLine
 10
72.8220313096254
 20
230.1259830721012
 30
0.0
 11
79.3220313096254
 21
230.1259830721012
 31
0.0
  0
LINE
  5
FD
330
1F
100
AcDbEntity
  8
0
  6
Continuous
 62
     7
100
AcDbLine
 10
86.52203130962545
 20
229.9759830721009
 30
0.0
 11
87.42203130962542
 21
229.9759830721009
 31
0.0
  0
LINE
  5
FE
330
1F
100
AcDbEntity
  8
0
  6
Continuous
 62
     7
100
AcDbLine
 10
75.8895894984903
 20
233.6759830721007
 30
0.0
 11
75.76958949849023
 21
233.675983072101
 31
0.0
  0
LINE
  5
FF
330
1F
100
AcDbEntity
  8
0
  6
Continuous
 62
     7
100
AcDbLine
 10
86.52203130962545
 20
92.77598459782206
 30
0.0
 11
86.52203130962539
 21
75.47598459782205
 31
0.0
  0
LINE
  5
100
330
1F
100
AcDbEntity
  8
0
  6
Continuous
 62
     7
100
AcDbLine
 10
83.2720313096259
 20
101.1259845978221
 30
0.0
 11
75.07203130962591
 21
101.1259845978221
 31
0.0
  0
LINE
  5
101
330
1F
100
AcDbEntity
  8
0
  6
Continuous
 62
     7
100
AcDbLine
 10
73.87203130962541
 20
99.12598459782214
 30
0.0
 11
75.07203130962591
 21
99.1259845978222
 31
0.0
  0
LINE
  5
102
330
1F
100
AcDbEntity
  8
0
  6
Continuous
 62
     7
100
AcDbLine
 10
71.82203130962546
 20
99.12598459782214
 30
0.0
 11
73.87203130962541
 21
99.12598459782214
 31
0.0
  0
LINE
  5
103
330
1F
100
AcDbEntity
  8
0
  6
Continuous
 62
     7
100
AcDbLine
 10
83.2720313096259
 20
99.1259845978222
 30
0.0
 11
84.4720313096256
 21
99.12598459782214
 31
0.0
  0
LINE
  5
104
330
1F
100
AcDbEntity
  8
0
  6
Continuous
 62
     7
100
AcDbLine
 10
74.48958949848895
 20
95.87598459782222
 30
0.0
 11
74.48958949848895
 21
93.7759845978222
 31
0.0
  0
LINE
  5
105
330
1F
100
AcDbEntity
  8
0
  6
Continuous
 62
     7
100
AcDbLine
 10
72.8220313096258
 20
92.12598459782205
 30
0.0
 11
72.8220313096258
 21
96.12598459782222
 31
0.0
  0
LINE
  5
106
330
1F
100
AcDbEntity
  8
0
  6
Continuous
 62
     7
100
AcDbLine
 10
74.32203130962586
 20
95.87598459782222
 30
0.0
 11
74.32203130962586
 21
92.07598459782224
 31
0.0
  0
LINE
  5
107
330
1F
100
AcDbEntity
  8
0
  6
Continuous
 62
     7
100
AcDbLine
 10
74.48958949848895
 20
95.87598459782222
 30
0.0
 11
74.32203130962586
 21
95.87598459782222
 31
0.0
  0
LINE
  5
108
330
1F
100
AcDbEntity
  8
0
  6
Continuous
 62
     7
100
AcDbLine
 10
74.48958949848895
 20
93.7759845978222
 30
0.0
 11
74.48958949848895
 21
92.07598459782227
 31
0.0
  0
LINE
  5
109
330
1F
100
AcDbEntity
  8
0
  6
Continuous
 62
     7
100
AcDbLine
 10
74.32203130962586
 20
92.07598459782224
 30
0.0
 11
74.48958949848895
 21
92.07598459782227
 31
0.0
  0
LINE
  5
10A
330
1F
100
AcDbEntity
  8
0
  6
Continuous
 62
     2
100
AcDbLine
 10
75.8895894984903
 20
89.07598459782213
 30
0.0
 11
73.8895894984903
 21
89.07598459782213
 31
0.0
  0
LINE
  5
10B
330
1F
100
AcDbEntity
  8
0
  6
Continuous
 62
     7
100
AcDbLine
 10
74.48958949848895
 20
92.07598459782227
 30
0.0
 11
75.8895894984903
 21
92.07598459782216
 31
0.0
  0
LINE
  5
10C
330
1F
100
AcDbEntity
  8
0
  6
Continuous
 62
     7
100
AcDbLine
 10
75.8895894984903
 20
92.07598459782216
 30
0.0
 11
75.8895894984903
 21
89.07598459782213
 31
0.0
  0
LINE
  5
10D
330
1F
100
AcDbEntity
  8
0
  6
Continuous
 62
     7
100
AcDbLine
 10
71.82203130962546
 20
92.12598459782205
 30
0.0
 11
71.8220313096254
 21
76.12598459782207
 31
0.0
  0
LINE
  5
10E
330
1F
100
AcDbEntity
  8
0
  6
Continuous
 62
     7
100
AcDbLine
 10
73.8895894984903
 20
92.07598459782216
 30
0.0
 11
74.32203130962586
 21
92.07598459782224
 31
0.0
  0
LINE
  5
10F
330
1F
100
AcDbEntity
  8
0
  6
Continuous
 62
     7
100
AcDbLine
 10
73.8895894984903
 20
79.17598459782214
 30
0.0
 11
73.8895894984903
 21
89.07598459782213
 31
0.0
  0
LINE
  5
110
330
1F
100
AcDbEntity
  8
0
  6
Continuous
 62
     7
100
AcDbLine
 10
73.8895894984903
 20
92.07598459782216
 30
0.0
 11
73.8895894984903
 21
89.07598459782213
 31
0.0
  0
LINE
  5
111
330
1F
100
AcDbEntity
  8
0
  6
Continuous
 62
     7
100
AcDbLine
 10
74.3220313096258
 20
76.17598459782221
 30
0.0
 11
73.8895894984903
 21
76.17598459782215
 31
0.0
  0
LINE
  5
112
330
1F
100
AcDbEntity
  8
0
  6
Continuous
 62
     7
100
AcDbLine
 10
74.48958949848895
 20
76.17598459782226
 30
0.0
 11
74.3220313096258
 21
76.17598459782221
 31
0.0
  0
LINE
  5
113
330
1F
100
AcDbEntity
  8
0
  6
Continuous
 62
     7
100
AcDbLine
 10
73.8895894984903
 20
76.17598459782215
 30
0.0
 11
73.8895894984903
 21
79.17598459782214
 31
0.0
  0
LINE
  5
114
330
1F
100
AcDbEntity
  8
0
  6
Continuous
 62
     7
100
AcDbLine
 10
71.82203130962546
 20
92.12598459782205
 30
0.0
 11
71.82203130962546
 21
96.12598459782222
 31
0.0
  0
LINE
  5
115
330
1F
100
AcDbEntity
  8
0
  6
Continuous
 62
     7
100
AcDbLine
 10
71.82203130962546
 20
92.12598459782205
 30
0.0
 11
72.8220313096258
 21
92.12598459782205
 31
0.0
  0
LINE
  5
116
330
1F
100
AcDbEntity
  8
0
  6
Continuous
 62
     7
100
AcDbLine
 10
72.8220313096258
 20
96.12598459782222
 30
0.0
 11
71.82203130962546
 21
96.12598459782222
 31
0.0
  0
LINE
  5
117
330
1F
100
AcDbEntity
  8
0
  6
Continuous
 62
     7
100
AcDbLine
 10
71.82203130962546
 20
96.12598459782222
 30
0.0
 11
71.82203130962546
 21
97.12598459782214
 31
0.0
  0
LINE
  5
118
330
1F
100
AcDbEntity
  8
0
  6
Continuous
 62
     7
100
AcDbLine
 10
73.87203130962541
 20
97.12598459782214
 30
0.0
 11
71.82203130962546
 21
97.12598459782214
 31
0.0
  0
LINE
  5
119
330
1F
100
AcDbEntity
  8
0
  6
Continuous
 62
     7
100
AcDbLine
 10
73.87203130962541
 20
97.12598459782214
 30
0.0
 11
73.87203130962541
 21
99.12598459782214
 31
0.0
  0
LINE
  5
11A
330
1F
100
AcDbEntity
  8
0
  6
Continuous
 62
     7
100
AcDbLine
 10
71.82203130962546
 20
97.12598459782214
 30
0.0
 11
71.82203130962546
 21
99.12598459782214
 31
0.0
  0
LINE
  5
11B
330
1F
100
AcDbEntity
  8
0
  6
Continuous
 62
     7
100
AcDbLine
 10
75.07203130962591
 20
101.1259845978221
 30
0.0
 11
75.07203130962591
 21
99.1259845978222
 31
0.0
  0
LINE
  5
11C
330
1F
100
AcDbEntity
  8
0
  6
Continuous
 62
     7
100
AcDbLine
 10
85.48958949849043
 20
72.3759845978222
 30
0.0
 11
85.48958949848895
 21
74.47598459782222
 31
0.0
  0
LINE
  5
11D
330
1F
100
AcDbEntity
  8
0
  6
Continuous
 62
     7
100
AcDbLine
 10
85.48958949849043
 20
88.32598459782216
 30
0.0
 11
85.48958949849043
 21
79.92598459782218
 31
0.0
  0
LINE
  5
11E
330
1F
100
AcDbEntity
  8
0
  6
Continuous
 62
     7
100
AcDbLine
 10
85.48958949849163
 20
95.8759845978222
 30
0.0
 11
85.48958949849043
 21
93.77598459782223
 31
0.0
  0
LINE
  5
11F
330
1F
100
AcDbEntity
  8
0
  6
Continuous
 62
     7
100
AcDbLine
 10
84.4720313096256
 20
99.12598459782214
 30
0.0
 11
86.52203130962545
 21
99.12598459782214
 31
0.0
  0
LINE
  5
120
330
1F
100
AcDbEntity
  8
0
  6
Continuous
 62
     7
100
AcDbLine
 10
85.48958949849043
 20
93.77598459782223
 30
0.0
 11
85.48958949849043
 21
92.07598459782221
 31
0.0
  0
LINE
  5
121
330
1F
100
AcDbEntity
  8
0
  6
Continuous
 62
     7
100
AcDbLine
 10
85.48958949849043
 20
76.17598459782221
 30
0.0
 11
85.48958949848895
 21
74.47598459782222
 31
0.0
  0
LINE
  5
122
330
1F
100
AcDbEntity
  8
0
  6
Continuous
 62
     7
100
AcDbLine
 10
84.4720313096256
 20
97.12598459782214
 30
0.0
 11
86.52203130962545
 21
97.12598459782214
 31
0.0
  0
LINE
  5
123
330
1F
100
AcDbEntity
  8
0
  6
Continuous
 62
     7
100
AcDbLine
 10
84.47203130962612
 20
71.1259845978218
 30
0.0
 11
86.52203130962539
 21
71.1259845978218
 31
0.0
  0
LINE
  5
124
330
1F
100
AcDbEntity
  8
0
  6
Continuous
 62
     7
100
AcDbLine
 10
85.48958949849043
 20
79.92598459782218
 30
0.0
 11
85.48958949849043
 21
76.17598459782221
 31
0.0
  0
LINE
  5
125
330
1F
100
AcDbEntity
  8
0
  6
Continuous
 62
     7
100
AcDbLine
 10
85.48958949849043
 20
92.07598459782221
 30
0.0
 11
85.48958949849043
 21
88.32598459782216
 31
0.0
  0
LINE
  5
126
330
1F
100
AcDbEntity
  8
0
  6
Continuous
 62
     7
100
AcDbLine
 10
86.52203130962539
 20
74.47598459782205
 30
0.0
 11
86.52203130962539
 21
73.77598459782206
 31
0.0
  0
LINE
  5
127
330
1F
100
AcDbEntity
  8
0
  6
Continuous
 62
     7
100
AcDbLine
 10
86.52203130962539
 20
72.77598459782206
 30
0.0
 11
86.52203130962539
 21
71.1259845978218
 31
0.0
  0
LINE
  5
128
330
1F
100
AcDbEntity
  8
0
  6
Continuous
 62
     7
100
AcDbLine
 10
86.52203130962539
 20
72.77598459782206
 30
0.0
 11
87.42203130962542
 21
72.77598459782206
 31
0.0
  0
LINE
  5
129
330
1F
100
AcDbEntity
  8
0
  6
Continuous
 62
     7
100
AcDbLine
 10
87.42203130962542
 20
73.77598459782206
 30
0.0
 11
86.52203130962539
 21
73.77598459782206
 31
0.0
  0
LINE
  5
12A
330
1F
100
AcDbEntity
  8
0
  6
Continuous
 62
     7
100
AcDbLine
 10
87.42203130962542
 20
74.47598459782205
 30
0.0
 11
86.52203130962539
 21
74.47598459782205
 31
0.0
  0
LINE
  5
12B
330
1F
100
AcDbEntity
  8
0
  6
Continuous
 62
     7
100
AcDbLine
 10
86.52203130962545
 20
95.47598459782205
 30
0.0
 11
87.42203130962542
 21
95.47598459782205
 31
0.0
  0
LINE
  5
12C
330
1F
100
AcDbEntity
  8
0
  6
Continuous
 62
     7
100
AcDbLine
 10
87.42203130962542
 20
94.47598459782205
 30
0.0
 11
86.52203130962545
 21
94.47598459782205
 31
0.0
  0
LINE
  5
12D
330
1F
100
AcDbEntity
  8
0
  6
Continuous
 62
     7
100
AcDbLine
 10
86.52203130962545
 20
93.77598459782206
 30
0.0
 11
87.42203130962542
 21
93.77598459782206
 31
0.0
  0
LINE
  5
12E
330
1F
100
AcDbEntity
  8
0
  6
Continuous
 62
     7
100
AcDbLine
 10
86.52203130962539
 20
75.47598459782205
 30
0.0
 11
87.42203130962542
 21
75.47598459782205
 31
0.0
  0
LINE
  5
12F
330
1F
100
AcDbEntity
  8
0
  6
Continuous
 62
     7
100
AcDbLine
 10
87.42203130962542
 20
92.77598459782206
 30
0.0
 11
86.52203130962545
 21
92.77598459782206
 31
0.0
  0
LINE
  5
130
330
1F
100
AcDbEntity
  8
0
  6
Continuous
 62
     7
100
AcDbLine
 10
87.42203130962542
 20
95.47598459782205
 30
0.0
 11
87.42203130962542
 21
94.47598459782205
 31
0.0
  0
LINE
  5
131
330
1F
100
AcDbEntity
  8
0
  6
Continuous
 62
     7
100
AcDbLine
 10
87.42203130962542
 20
93.77598459782206
 30
0.0
 11
87.42203130962542
 21
92.77598459782206
 31
0.0
  0
LINE
  5
132
330
1F
100
AcDbEntity
  8
0
  6
Continuous
 62
     7
100
AcDbLine
 10
87.42203130962542
 20
72.77598459782206
 30
0.0
 11
87.42203130962542
 21
73.77598459782206
 31
0.0
  0
LINE
  5
133
330
1F
100
AcDbEntity
  8
0
  6
Continuous
 62
     7
100
AcDbLine
 10
87.42203130962542
 20
75.47598459782205
 30
0.0
 11
87.42203130962542
 21
74.47598459782205
 31
0.0
  0
LINE
  5
134
330
1F
100
AcDbEntity
  8
0
  6
Continuous
 62
     7
100
AcDbLine
 10
86.52203130962545
 20
97.12598459782214
 30
0.0
 11
86.52203130962545
 21
95.47598459782205
 31
0.0
  0
LINE
  5
135
330
1F
100
AcDbEntity
  8
0
  6
Continuous
 62
     7
100
AcDbLine
 10
86.52203130962545
 20
94.47598459782205
 30
0.0
 11
86.52203130962545
 21
93.77598459782206
 31
0.0
  0
LINE
  5
136
330
1F
100
AcDbEntity
  8
0
  6
Continuous
 62
     7
100
AcDbLine
 10
86.52203130962545
 20
69.1259845978217
 30
0.0
 11
84.4720313096256
 21
69.12598459782173
 31
0.0
  0
LINE
  5
137
330
1F
100
AcDbEntity
  8
0
  6
Continuous
 62
     7
100
AcDbLine
 10
86.52203130962545
 20
69.1259845978217
 30
0.0
 11
86.52203130962539
 21
71.1259845978218
 31
0.0
  0
LINE
  5
138
330
1F
100
AcDbEntity
  8
0
  6
Continuous
 62
     7
100
AcDbLine
 10
85.48958949849043
 20
92.07598459782221
 30
0.0
 11
75.8895894984903
 21
92.07598459782216
 31
0.0
  0
LINE
  5
139
330
1F
100
AcDbEntity
  8
0
  6
Continuous
 62
     7
100
AcDbLine
 10
74.48958949848895
 20
93.7759845978222
 30
0.0
 11
85.48958949849043
 21
93.77598459782223
 31
0.0
  0
LINE
  5
13A
330
1F
100
AcDbEntity
  8
0
  6
Continuous
 62
     7
100
AcDbLine
 10
74.48958949848895
 20
95.87598459782222
 30
0.0
 11
85.48958949849163
 21
95.8759845978222
 31
0.0
  0
LINE
  5
13B
330
1F
100
AcDbEntity
  8
0
  6
Continuous
 62
     7
100
AcDbLine
 10
84.4720313096256
 20
99.12598459782214
 30
0.0
 11
84.4720313096256
 21
97.12598459782214
 31
0.0
  0
LINE
  5
13C
330
1F
100
AcDbEntity
  8
0
  6
Continuous
 62
     7
100
AcDbLine
 10
86.52203130962545
 20
97.12598459782214
 30
0.0
 11
86.52203130962545
 21
99.12598459782214
 31
0.0
  0
LINE
  5
13D
330
1F
100
AcDbEntity
  8
0
  6
Continuous
 62
     7
100
AcDbLine
 10
83.2720313096259
 20
101.1259845978221
 30
0.0
 11
83.2720313096259
 21
99.1259845978222
 31
0.0
  0
LINE
  5
13E
330
1F
100
AcDbEntity
  8
0
  6
Continuous
 62
     7
100
AcDbLine
 10
76.0720313096258
 20
67.12598459782207
 30
0.0
 11
82.27203130962585
 21
67.12598459782205
 31
0.0
  0
LINE
  5
13F
330
1F
100
AcDbEntity
  8
0
  6
Continuous
 62
     7
100
AcDbLine
 10
74.48958949848895
 20
72.37598459782222
 30
0.0
 11
74.48958949848895
 21
74.47598459782226
 31
0.0
  0
LINE
  5
140
330
1F
100
AcDbEntity
  8
0
  6
Continuous
 62
     7
100
AcDbLine
 10
73.87203130962541
 20
69.12598459782174
 30
0.0
 11
73.87203130962541
 21
71.1259845978218
 31
0.0
  0
LINE
  5
141
330
1F
100
AcDbEntity
  8
0
  6
Continuous
 62
     7
100
AcDbLine
 10
73.87203130962541
 20
71.1259845978218
 30
0.0
 11
71.8220313096254
 21
71.1259845978218
 31
0.0
  0
LINE
  5
142
330
1F
100
AcDbEntity
  8
0
  6
Continuous
 62
     7
100
AcDbLine
 10
72.8220313096258
 20
72.12598459782214
 30
0.0
 11
72.8220313096258
 21
76.12598459782207
 31
0.0
  0
LINE
  5
143
330
1F
100
AcDbEntity
  8
0
  6
Continuous
 62
     7
100
AcDbLine
 10
74.3220313096258
 20
76.17598459782221
 30
0.0
 11
74.3220313096258
 21
72.37598459782222
 31
0.0
  0
LINE
  5
144
330
1F
100
AcDbEntity
  8
0
  6
Continuous
 62
     7
100
AcDbLine
 10
74.48958949848895
 20
72.37598459782222
 30
0.0
 11
74.3220313096258
 21
72.37598459782222
 31
0.0
  0
LINE
  5
145
330
1F
100
AcDbEntity
  8
0
  6
Continuous
 62
     7
100
AcDbLine
 10
71.8220313096254
 20
72.12598459782208
 30
0.0
 11
71.8220313096254
 21
76.12598459782207
 31
0.0
  0
LINE
  5
146
330
1F
100
AcDbEntity
  8
0
  6
Continuous
 62
     7
100
AcDbLine
 10
71.8220313096254
 20
76.12598459782207
 30
0.0
 11
72.8220313096258
 21
76.12598459782207
 31
0.0
  0
LINE
  5
147
330
1F
100
AcDbEntity
  8
0
  6
Continuous
 62
     7
100
AcDbLine
 10
71.8220313096254
 20
72.12598459782208
 30
0.0
 11
72.8220313096258
 21
72.12598459782214
 31
0.0
  0
LINE
  5
148
330
1F
100
AcDbEntity
  8
0
  6
Continuous
 62
     7
100
AcDbLine
 10
71.8220313096254
 20
71.1259845978218
 30
0.0
 11
71.8220313096254
 21
72.12598459782208
 31
0.0
  0
LINE
  5
149
330
1F
100
AcDbEntity
  8
0
  6
Continuous
 62
     7
100
AcDbLine
 10
82.27203130962585
 20
67.12598459782205
 30
0.0
 11
82.27203130962585
 21
69.12598459782174
 31
0.0
  0
LINE
  5
14A
330
1F
100
AcDbEntity
  8
0
  6
Continuous
 62
     7
100
AcDbLine
 10
71.8220313096254
 20
69.12598459782171
 30
0.0
 11
71.8220313096254
 21
71.1259845978218
 31
0.0
  0
LINE
  5
14B
330
1F
100
AcDbEntity
  8
0
  6
Continuous
 62
     7
100
AcDbLine
 10
73.87203130962541
 20
69.12598459782174
 30
0.0
 11
71.8220313096254
 21
69.12598459782171
 31
0.0
  0
LINE
  5
14C
330
1F
100
AcDbEntity
  8
0
  6
Continuous
 62
     7
100
AcDbLine
 10
75.88958949849024
 20
76.17598459782218
 30
0.0
 11
74.48958949848895
 21
76.17598459782226
 31
0.0
  0
LINE
  5
14D
330
1F
100
AcDbEntity
  8
0
  6
Continuous
 62
     2
100
AcDbLine
 10
75.88958949849024
 20
79.17598459782214
 30
0.0
 11
73.8895894984903
 21
79.17598459782214
 31
0.0
  0
LINE
  5
14E
330
1F
100
AcDbEntity
  8
0
  6
Continuous
 62
     7
100
AcDbLine
 10
76.0720313096258
 20
69.12598459782174
 30
0.0
 11
76.0720313096258
 21
67.12598459782207
 31
0.0
  0
LINE
  5
14F
330
1F
100
AcDbEntity
  8
0
  6
Continuous
 62
     7
100
AcDbLine
 10
75.8895894984903
 20
89.07598459782213
 30
0.0
 11
75.8895894984903
 21
88.32598459782218
 31
0.0
  0
LINE
  5
150
330
1F
100
AcDbEntity
  8
0
  6
Continuous
 62
     7
100
AcDbLine
 10
74.48958949848895
 20
74.47598459782226
 30
0.0
 11
74.48958949848895
 21
76.17598459782226
 31
0.0
  0
LINE
  5
151
330
1F
100
AcDbEntity
  8
0
  6
Continuous
 62
     7
100
AcDbLine
 10
74.48958949848895
 20
74.47598459782226
 30
0.0
 11
85.48958949848895
 21
74.47598459782222
 31
0.0
  0
LINE
  5
152
330
1F
100
AcDbEntity
  8
0
  6
Continuous
 62
     7
100
AcDbLine
 10
75.88958949849024
 20
79.92598459782218
 30
0.0
 11
85.48958949849043
 21
79.92598459782218
 31
0.0
  0
LINE
  5
153
330
1F
100
AcDbEntity
  8
0
  6
Continuous
 62
     7
100
AcDbLine
 10
74.48958949848895
 20
72.37598459782222
 30
0.0
 11
85.48958949849043
 21
72.3759845978222
 31
0.0
  0
LINE
  5
154
330
1F
100
AcDbEntity
  8
0
  6
Continuous
 62
     7
100
AcDbLine
 10
84.4720313096256
 20
69.12598459782173
 30
0.0
 11
84.47203130962612
 21
71.1259845978218
 31
0.0
  0
LINE
  5
155
330
1F
100
AcDbEntity
  8
0
  6
Continuous
 62
     7
100
AcDbLine
 10
84.4720313096256
 20
69.12598459782173
 30
0.0
 11
82.27203130962585
 21
69.12598459782174
 31
0.0
  0
LINE
  5
156
330
1F
100
AcDbEntity
  8
0
  6
Continuous
 62
     7
100
AcDbLine
 10
76.0720313096258
 20
69.12598459782174
 30
0.0
 11
73.87203130962541
 21
69.12598459782174
 31
0.0
  0
LINE
  5
157
330
1F
100
AcDbEntity
  8
0
  6
Continuous
 62
     7
100
AcDbLine
 10
75.88958949849024
 20
76.17598459782218
 30
0.0
 11
85.48958949849043
 21
76.17598459782221
 31
0.0
  0
LINE
  5
158
330
1F
100
AcDbEntity
  8
0
  6
Continuous
 62
     7
100
AcDbLine
 10
75.8895894984903
 20
88.32598459782218
 30
0.0
 11
85.48958949849043
 21
88.32598459782216
 31
0.0
  0
LINE
  5
159
330
1F
100
AcDbEntity
  8
0
  6
Continuous
 62
     7
100
AcDbLine
 10
82.56958949849025
 20
88.32598459782218
 30
0.0
 11
82.56958949849025
 21
79.92598459782218
 31
0.0
  0
LINE
  5
15A
330
1F
100
AcDbEntity
  8
0
  6
Continuous
 62
     7
100
AcDbLine
 10
75.8895894984903
 20
88.32598459782218
 30
0.0
 11
75.88958949849024
 21
79.92598459782218
 31
0.0
  0
LINE
  5
15B
330
1F
100
AcDbEntity
  8
0
  6
Continuous
 62
     7
100
AcDbLine
 10
75.88958949849024
 20
79.92598459782218
 30
0.0
 11
75.88958949849024
 21
79.17598459782214
 31
0.0
  0
LINE
  5
15C
330
1F
100
AcDbEntity
  8
0
  6
Continuous
 62
     7
100
AcDbLine
 10
75.88958949849024
 20
76.17598459782218
 30
0.0
 11
75.88958949849024
 21
79.17598459782214
 31
0.0
  0
LINE
  5
15D
330
1F
100
AcDbEntity
  8
0
  6
Continuous
 62
     7
100
AcDbLine
 10
79.17203130962582
 20
138.9378976717118
 30
0.0
 11
81.8805621462788
 21
137.3759852874485
 31
0.0
  0
LINE
  5
15E
330
1F
100
AcDbEntity
  8
0
  6
Continuous
 62
     7
100
AcDbLine
 10
86.52203130962545
 20
124.5259852874486
 30
0.0
 11
86.52203130962545
 21
141.2259852874484
 31
0.0
  0
LINE
  5
15F
330
1F
100
AcDbEntity
  8
0
  6
Continuous
 62
     7
100
AcDbLine
 10
87.42203130962542
 20
148.7259852874484
 30
0.0
 11
86.52203130962545
 21
148.7259852874484
 31
0.0
  0
LINE
  5
160
330
1F
100
AcDbEntity
  8
0
  6
Continuous
 62
     7
100
AcDbLine
 10
86.52203130962545
 20
148.7259852874484
 30
0.0
 11
86.52203130962545
 21
141.2259852874484
 31
0.0
  0
LINE
  5
161
330
1F
100
AcDbEntity
  8
0
  6
Continuous
 62
     7
100
AcDbLine
 10
75.88958949849024
 20
174.6259852874483
 30
0.0
 11
85.48958949849043
 21
174.6259852874483
 31
0.0
  0
LINE
  5
162
330
1F
100
AcDbEntity
  8
0
  6
Continuous
 62
     7
100
AcDbLine
 10
85.48958949849043
 20
158.7259852874484
 30
0.0
 11
85.48958949849043
 21
166.2259852874484
 31
0.0
  0
LINE
  5
163
330
1F
100
AcDbEntity
  8
0
  6
Continuous
 62
     7
100
AcDbLine
 10
85.48958949849043
 20
166.2259852874484
 30
0.0
 11
85.48958949849043
 21
174.6259852874483
 31
0.0
  0
LINE
  5
164
330
1F
100
AcDbEntity
  8
0
  6
Continuous
 62
     7
100
AcDbLine
 10
79.17203130962582
 20
135.8140729031854
 30
0.0
 11
76.4635004729729
 21
137.3759852874485
 31
0.0
  0
LINE
  5
165
330
1F
100
AcDbEntity
  8
0
  6
Continuous
 62
     7
100
AcDbLine
 10
76.4635004729729
 20
137.3759852874485
 30
0.0
 11
79.17203130962582
 21
138.9378976717118
 31
0.0
  0
LINE
  5
166
330
1F
100
AcDbEntity
  8
0
  6
Continuous
 62
     7
100
AcDbLine
 10
71.8220313096254
 20
124.5259852874486
 30
0.0
 11
71.8220313096254
 21
141.2259852874484
 31
0.0
  0
LINE
  5
167
330
1F
100
AcDbEntity
  8
0
  6
Continuous
 62
     7
100
AcDbLine
 10
79.17203130962588
 20
137.6259852874485
 30
0.0
 11
78.85952989611962
 21
137.985887720442
 31
0.0
  0
LINE
  5
168
330
1F
100
AcDbEntity
  8
0
  6
Continuous
 62
     7
100
AcDbLine
 10
78.85952989611962
 20
137.985887720442
 30
0.0
 11
78.85952989611962
 21
136.9677908198662
 31
0.0
  0
LINE
  5
169
330
1F
100
AcDbEntity
  8
0
  6
Continuous
 62
     7
100
AcDbLine
 10
78.44286134477795
 20
136.7876893152406
 30
0.0
 11
79.22406860645611
 21
136.337195165357
 31
0.0
  0
LINE
  5
16A
330
1F
100
AcDbEntity
  8
0
  6
Continuous
 62
     7
100
AcDbLine
 10
78.44286134477795
 20
138.0244575328087
 30
0.0
 11
78.44286134477795
 21
136.7876893152406
 31
0.0
  0
LINE
  5
16B
330
1F
100
AcDbEntity
  8
0
  6
Continuous
 62
     7
100
AcDbLine
 10
78.02619279343628
 20
137.7841797550309
 30
0.0
 11
78.02619279343628
 21
136.9677908198662
 31
0.0
  0
LINE
  5
16C
330
1F
100
AcDbEntity
  8
0
  6
Continuous
 62
     7
100
AcDbLine
 10
77.81785851776544
 20
136.9677908198662
 30
0.0
 11
77.81785851776544
 21
137.7841797550309
 31
0.0
  0
LINE
  5
16D
330
1F
100
AcDbEntity
  8
0
  6
Continuous
 62
     7
100
AcDbLine
 10
79.48453272313213
 20
137.985887720442
 30
0.0
 11
79.17203130962588
 21
137.6259852874485
 31
0.0
  0
LINE
  5
16E
330
1F
100
AcDbEntity
  8
0
  6
Continuous
 62
     7
100
AcDbLine
 10
78.23452712810808
 20
136.7275130420885
 30
0.0
 11
78.23452706910712
 21
138.0244575328087
 31
0.0
  0
LINE
  5
16F
330
1F
100
AcDbEntity
  8
0
  6
Continuous
 62
     7
100
AcDbLine
 10
80.10953555014459
 20
137.2718186207819
 30
0.0
 11
80.10953555014459
 21
136.9078282041295
 31
0.0
  0
LINE
  5
170
330
1F
100
AcDbEntity
  8
0
  6
Continuous
 62
     7
100
AcDbLine
 10
79.90120180422383
 20
136.7275130420885
 30
0.0
 11
79.90120180422377
 21
138.0244575328086
 31
0.0
  0
LINE
  5
171
330
1F
100
AcDbEntity
  8
0
  6
Continuous
 62
     7
100
AcDbLine
 10
79.17203130962582
 20
138.8176519541152
 30
0.0
 11
76.6720200015759
 21
137.3759852874485
 31
0.0
  0
LINE
  5
172
330
1F
100
AcDbEntity
  8
0
  6
Continuous
 62
     7
100
AcDbLine
 10
78.83401746582803
 20
138.3330301668468
 30
0.0
 11
79.17203076168533
 21
137.9437459881823
 31
0.0
  0
LINE
  5
173
330
1F
100
AcDbEntity
  8
0
  6
Continuous
 62
     7
100
AcDbLine
 10
76.6720200015759
 20
137.3759852874485
 30
0.0
 11
79.17203130962582
 21
135.9343186207819
 31
0.0
  0
LINE
  5
174
330
1F
100
AcDbEntity
  8
0
  6
Continuous
 62
     7
100
AcDbLine
 10
79.11999398332136
 20
136.1567197565973
 30
0.0
 11
78.28665688063808
 21
136.6372753121529
 31
0.0
  0
LINE
  5
175
330
1F
100
AcDbEntity
  8
0
  6
Continuous
 62
     7
100
AcDbLine
 10
79.17203076168533
 20
137.9437459881823
 30
0.0
 11
79.51004460548313
 21
138.3330306426207
 31
0.0
  0
LINE
  5
176
330
1F
100
AcDbEntity
  8
0
  6
Continuous
 62
     7
100
AcDbLine
 10
78.65119562044879
 20
136.9677908198662
 30
0.0
 11
78.65119634612063
 21
138.2647353105864
 31
0.0
  0
LINE
  5
177
330
1F
100
AcDbEntity
  8
0
  6
Continuous
 62
     7
100
AcDbLine
 10
79.48453272313208
 20
136.4872352643107
 30
0.0
 11
79.48453272313213
 21
137.985887720442
 31
0.0
  0
LINE
  5
178
330
1F
100
AcDbEntity
  8
0
  6
Continuous
 62
     7
100
AcDbLine
 10
79.69286699880291
 20
138.2647353105864
 30
0.0
 11
79.69286699880291
 21
136.4872352643107
 31
0.0
  0
LINE
  5
179
330
1F
100
AcDbEntity
  8
0
  6
Continuous
 62
     7
100
AcDbLine
 10
80.10953555014459
 20
137.8441423707676
 30
0.0
 11
80.10953555014459
 21
137.4801519541152
 31
0.0
  0
LINE
  5
17A
330
1F
100
AcDbEntity
  8
0
  6
Continuous
 62
     7
100
AcDbLine
 10
86.52203130962545
 20
124.5259852874486
 30
0.0
 11
71.8220313096254
 21
124.5259852874486
 31
0.0
  0
LINE
  5
17B
330
1F
100
AcDbEntity
  8
0
  6
Continuous
 62
     7
100
AcDbLine
 10
84.47203130962612
 20
155.2259852874484
 30
0.0
 11
84.4720313096256
 21
150.2259852874485
 31
0.0
  0
LINE
  5
17C
330
1F
100
AcDbEntity
  8
0
  6
Continuous
 62
     7
100
AcDbLine
 10
87.42203130962542
 20
158.7259852874484
 30
0.0
 11
86.52203130962545
 21
158.7259852874484
 31
0.0
  0
LINE
  5
17D
330
1F
100
AcDbEntity
  8
0
  6
Continuous
 62
     7
100
AcDbLine
 10
84.4720313096256
 20
150.2259852874485
 30
0.0
 11
84.4720313096256
 21
141.2259852874484
 31
0.0
  0
LINE
  5
17E
330
1F
100
AcDbEntity
  8
0
  6
Continuous
 62
     7
100
AcDbLine
 10
82.27203130962585
 20
155.7259852874484
 30
0.0
 11
82.27203130962585
 21
158.7259852874484
 31
0.0
  0
LINE
  5
17F
330
1F
100
AcDbEntity
  8
0
  6
Continuous
 62
     7
100
AcDbLine
 10
84.4720313096256
 20
158.7259852874484
 30
0.0
 11
84.47203130962612
 21
155.2259852874484
 31
0.0
  0
LINE
  5
180
330
1F
100
AcDbEntity
  8
0
  6
Continuous
 62
     7
100
AcDbLine
 10
84.28958949848936
 20
150.6259852874483
 30
0.0
 11
84.28958949848936
 21
155.1259852874483
 31
0.0
  0
LINE
  5
181
330
1F
100
AcDbEntity
  8
0
  6
Continuous
 62
     7
100
AcDbLine
 10
86.52203130962545
 20
158.7259852874484
 30
0.0
 11
86.52203130962545
 21
148.7259852874484
 31
0.0
  0
LINE
  5
182
330
1F
100
AcDbEntity
  8
0
  6
Continuous
 62
     7
100
AcDbLine
 10
87.42203130962542
 20
158.7259852874484
 30
0.0
 11
87.42203130962542
 21
148.7259852874484
 31
0.0
  0
LINE
  5
183
330
1F
100
AcDbEntity
  8
0
  6
Continuous
 62
     7
100
AcDbLine
 10
73.88958949849024
 20
185.1259852874483
 30
0.0
 11
73.88958949849024
 21
188.1259852874483
 31
0.0
  0
LINE
  5
184
330
1F
100
AcDbEntity
  8
0
  6
Continuous
 62
     7
100
AcDbLine
 10
73.88958949849024
 20
158.7259852874484
 30
0.0
 11
73.88958949849024
 21
185.1259852874483
 31
0.0
  0
LINE
  5
185
330
1F
100
AcDbEntity
  8
0
  6
Continuous
 62
     7
100
AcDbLine
 10
73.87203130962541
 20
158.7259852874484
 30
0.0
 11
73.87203130962541
 21
141.2259852874484
 31
0.0
  0
LINE
  5
186
330
1F
100
AcDbEntity
  8
0
  6
Continuous
 62
     7
100
AcDbLine
 10
76.0720313096258
 20
155.7259852874484
 30
0.0
 11
76.0720313096258
 21
158.7259852874484
 31
0.0
  0
LINE
  5
187
330
1F
100
AcDbEntity
  8
0
  6
Continuous
 62
     7
100
AcDbLine
 10
71.8220313096254
 20
141.2259852874484
 30
0.0
 11
71.8220313096254
 21
158.7259852874484
 31
0.0
  0
LINE
  5
188
330
1F
100
AcDbEntity
  8
0
  6
Continuous
 62
     2
100
AcDbLine
 10
75.88958949849024
 20
185.1259852874483
 30
0.0
 11
73.88958949849024
 21
185.1259852874483
 31
0.0
  0
LINE
  5
189
330
1F
100
AcDbEntity
  8
0
  6
Continuous
 62
     7
100
AcDbLine
 10
75.88958949849024
 20
185.1259852874483
 30
0.0
 11
75.88958949849024
 21
174.6259852874483
 31
0.0
  0
LINE
  5
18A
330
1F
100
AcDbEntity
  8
0
  6
Continuous
 62
     7
100
AcDbLine
 10
75.88958949849024
 20
188.1259852874483
 30
0.0
 11
73.88958949849024
 21
188.1259852874483
 31
0.0
  0
LINE
  5
18B
330
1F
100
AcDbEntity
  8
0
  6
Continuous
 62
     7
100
AcDbLine
 10
75.88958949849024
 20
185.1259852874483
 30
0.0
 11
75.88958949849024
 21
188.1259852874483
 31
0.0
  0
LINE
  5
18C
330
1F
100
AcDbEntity
  8
0
  6
Continuous
 62
     7
100
AcDbLine
 10
84.4720313096256
 20
150.2259852874485
 30
0.0
 11
75.07203130962591
 21
150.2259852874485
 31
0.0
  0
LINE
  5
18D
330
1F
100
AcDbEntity
  8
0
  6
Continuous
 62
     7
100
AcDbLine
 10
81.77203130962585
 20
155.2259852874484
 30
0.0
 11
76.5720313096258
 21
155.2259852874484
 31
0.0
  0
LINE
  5
18E
330
1F
100
AcDbEntity
  8
0
  6
Continuous
 62
     7
100
AcDbLine
 10
75.07203130962591
 20
150.2259852874485
 30
0.0
 11
75.07203130962591
 21
155.2259852874484
 31
0.0
  0
LINE
  5
18F
330
1F
100
AcDbEntity
  8
0
  6
Continuous
 62
     7
100
AcDbLine
 10
75.07203130962591
 20
155.2259852874484
 30
0.0
 11
76.5720313096258
 21
155.2259852874484
 31
0.0
  0
LINE
  5
190
330
1F
100
AcDbEntity
  8
0
  6
Continuous
 62
     7
100
AcDbLine
 10
81.77203130962585
 20
155.2259852874484
 30
0.0
 11
84.47203130962612
 21
155.2259852874484
 31
0.0
  0
LINE
  5
191
330
1F
100
AcDbEntity
  8
0
  6
Continuous
 62
     7
100
AcDbLine
 10
75.08958949848909
 20
150.6259852874483
 30
0.0
 11
75.08958949848909
 21
155.1259852874483
 31
0.0
  0
LINE
  5
192
330
1F
100
AcDbEntity
  8
0
  6
Continuous
 62
     7
100
AcDbLine
 10
84.28958949848936
 20
150.6259852874483
 30
0.0
 11
75.08958949848909
 21
150.6259852874483
 31
0.0
  0
LINE
  5
193
330
1F
100
AcDbEntity
  8
0
  6
Continuous
 62
     7
100
AcDbLine
 10
84.28958949848936
 20
155.1259852874483
 30
0.0
 11
75.08958949848909
 21
155.1259852874483
 31
0.0
  0
LINE
  5
194
330
1F
100
AcDbEntity
  8
0
  6
Continuous
 62
     7
100
AcDbLine
 10
81.8805621462788
 20
137.3759852874485
 30
0.0
 11
79.17203130962582
 21
135.8140729031854
 31
0.0
  0
LINE
  5
195
330
1F
100
AcDbEntity
  8
0
  6
Continuous
 62
     7
100
AcDbLine
 10
73.87203130962541
 20
141.2259852874484
 30
0.0
 11
71.8220313096254
 21
141.2259852874484
 31
0.0
  0
LINE
  5
196
330
1F
100
AcDbEntity
  8
0
  6
Continuous
 62
     7
100
AcDbLine
 10
86.52203130962545
 20
141.2259852874484
 30
0.0
 11
84.4720313096256
 21
141.2259852874484
 31
0.0
  0
LINE
  5
197
330
1F
100
AcDbEntity
  8
0
  6
Continuous
 62
     7
100
AcDbLine
 10
81.67204261767586
 20
137.3759852874485
 30
0.0
 11
79.17203130962582
 21
138.8176519541152
 31
0.0
  0
LINE
  5
198
330
1F
100
AcDbEntity
  8
0
  6
Continuous
 62
     7
100
AcDbLine
 10
80.05740570913946
 20
138.1146952116327
 30
0.0
 11
80.68240853615191
 21
137.754278544966
 31
0.0
  0
LINE
  5
199
330
1F
100
AcDbEntity
  8
0
  6
Continuous
 62
     7
100
AcDbLine
 10
80.57833394249138
 20
137.5738031873179
 30
0.0
 11
80.10953555014459
 21
137.8441423707676
 31
0.0
  0
LINE
  5
19A
330
1F
100
AcDbEntity
  8
0
  6
Continuous
 62
     7
100
AcDbLine
 10
80.10953555014459
 20
137.4801519541152
 30
0.0
 11
80.63037123932168
 21
137.4801519541152
 31
0.0
  0
LINE
  5
19B
330
1F
100
AcDbEntity
  8
0
  6
Continuous
 62
     7
100
AcDbLine
 10
79.17203130962582
 20
135.9343186207819
 30
0.0
 11
81.67204261767586
 21
137.3759852874485
 31
0.0
  0
LINE
  5
19C
330
1F
100
AcDbEntity
  8
0
  6
Continuous
 62
     7
100
AcDbLine
 10
80.63037123932168
 20
137.2718186207819
 30
0.0
 11
80.10953555014459
 21
137.2718186207819
 31
0.0
  0
LINE
  5
19D
330
1F
100
AcDbEntity
  8
0
  6
Continuous
 62
     7
100
AcDbLine
 10
80.10953555014459
 20
136.9078282041295
 30
0.0
 11
80.57833394249138
 21
137.1781673875792
 31
0.0
  0
LINE
  5
19E
330
1F
100
AcDbEntity
  8
0
  6
Continuous
 62
     7
100
AcDbLine
 10
80.68240853615197
 20
136.9976920299311
 30
0.0
 11
80.05740597377826
 21
136.6372749043511
 31
0.0
  0
LINE
  5
19F
330
1F
100
AcDbEntity
  8
0
  6
Continuous
 62
     7
100
AcDbLine
 10
74.48958949848895
 20
166.2259852874484
 30
0.0
 11
85.48958949849043
 21
166.2259852874484
 31
0.0
  0
LINE
  5
1A0
330
1F
100
AcDbEntity
  8
0
  6
Continuous
 62
     7
100
AcDbLine
 10
84.4720313096256
 20
158.7259852874484
 30
0.0
 11
82.27203130962585
 21
158.7259852874484
 31
0.0
  0
LINE
  5
1A1
330
1F
100
AcDbEntity
  8
0
  6
Continuous
 62
     7
100
AcDbLine
 10
76.0720313096258
 20
158.7259852874484
 30
0.0
 11
74.48958949848895
 21
158.7259852874487
 31
0.0
  0
LINE
  5
1A2
330
1F
100
AcDbEntity
  8
0
  6
Continuous
 62
     7
100
AcDbLine
 10
74.48958949848895
 20
158.7259852874487
 30
0.0
 11
73.88958949849024
 21
158.7259852874484
 31
0.0
  0
LINE
  5
1A3
330
1F
100
AcDbEntity
  8
0
  6
Continuous
 62
     7
100
AcDbLine
 10
76.0720313096258
 20
158.7259852874484
 30
0.0
 11
82.27203130962585
 21
158.7259852874484
 31
0.0
  0
LINE
  5
1A4
330
1F
100
AcDbEntity
  8
0
  6
Continuous
 62
     7
100
AcDbLine
 10
73.88958949849024
 20
158.7259852874484
 30
0.0
 11
73.87203130962541
 21
158.7259852874484
 31
0.0
  0
LINE
  5
1A5
330
1F
100
AcDbEntity
  8
0
  6
Continuous
 62
     7
100
AcDbLine
 10
85.48958949849043
 20
158.7259852874484
 30
0.0
 11
86.52203130962545
 21
158.7259852874484
 31
0.0
  0
LINE
  5
1A6
330
1F
100
AcDbEntity
  8
0
  6
Continuous
 62
     7
100
AcDbLine
 10
84.4720313096256
 20
158.7259852874484
 30
0.0
 11
85.48958949849043
 21
158.7259852874484
 31
0.0
  0
LINE
  5
1A7
330
1F
100
AcDbEntity
  8
0
  6
Continuous
 62
     7
100
AcDbLine
 10
73.87203130962541
 20
158.7259852874484
 30
0.0
 11
71.8220313096254
 21
158.7259852874484
 31
0.0
  0
LINE
  5
1A8
330
1F
100
AcDbEntity
  8
0
  6
Continuous
 62
     7
100
AcDbLine
 10
74.48958949848895
 20
158.7259852874487
 30
0.0
 11
74.48958949848895
 21
166.2259852874484
 31
0.0
  0
LINE
  5
1A9
330
1F
100
AcDbEntity
  8
0
  6
Continuous
 62
     7
100
AcDbLine
 10
161.1295851811649
 20
271.5762681893017
 30
0.0
 11
143.2168437924975
 21
280.5326388836357
 31
0.0
  0
LINE
  5
1AA
330
1F
100
AcDbEntity
  8
0
  6
Continuous
 62
     7
100
AcDbLine
 10
184.6055303165578
 20
238.5010281889079
 30
0.0
 11
172.7968470707424
 21
244.4053698118158
 31
0.0
  0
LINE
  5
1AB
330
1F
100
AcDbEntity
  8
0
  6
Continuous
 62
     7
100
AcDbLine
 10
184.6055303165578
 20
238.5010281889079
 30
0.0
 11
195.0000000000001
 21
243.698263030629
 31
0.0
  0
LINE
  5
1AC
330
1F
100
AcDbEntity
  8
0
  6
Continuous
 62
     7
100
AcDbLine
 10
194.2928932188136
 20
244.2107350438203
 30
0.0
 11
185.3126370977444
 21
239.7206069832857
 31
0.0
  0
LINE
  5
1AD
330
1F
100
AcDbEntity
  8
0
  6
Continuous
 62
     7
100
AcDbLine
 10
185.0651497243291
 20
251.6701703758312
 30
0.0
 11
194.5403805922288
 21
246.9325549418813
 31
0.0
  0
LINE
  5
1AE
330
1F
100
AcDbEntity
  8
0
  6
Continuous
 62
     7
100
AcDbLine
 10
185.0651497243291
 20
249.9107912497071
 30
0.0
 11
190.6159379566435
 21
247.1353971335498
 31
0.0
  0
LINE
  5
1AF
330
1F
100
AcDbEntity
  8
0
  6
Continuous
 62
     7
100
AcDbLine
 10
190.6159379566435
 20
244.9703336240886
 30
0.0
 11
194.5403805922288
 21
246.9325549418813
 31
0.0
  0
LINE
  5
1B0
330
1F
100
AcDbEntity
  8
0
  6
Continuous
 62
     7
100
AcDbLine
 10
189.908831175457
 20
245.9158183391721
 30
0.0
 11
189.908831175457
 21
243.7507548297109
 31
0.0
  0
LINE
  5
1B1
330
1F
100
AcDbEntity
  8
0
  6
Continuous
 62
     7
100
AcDbLine
 10
187.7437676659957
 20
244.8332865844415
 30
0.0
 11
189.908831175457
 21
243.7507548297109
 31
0.0
  0
LINE
  5
1B2
330
1F
100
AcDbEntity
  8
0
  6
Continuous
 62
     7
100
AcDbLine
 10
194.2928932188136
 20
244.2107350438203
 30
0.0
 11
194.2928932188136
 21
245.9427858513892
 31
0.0
  0
LINE
  5
1B3
330
1F
100
AcDbEntity
  8
0
  6
Continuous
 62
     7
100
AcDbLine
 10
190.6159379566435
 20
247.1353971335498
 30
0.0
 11
185.0651497243291
 21
244.3600030173927
 31
0.0
  0
LINE
  5
1B4
330
1F
100
AcDbEntity
  8
0
  6
Continuous
 62
     7
100
AcDbLine
 10
194.2928932188136
 20
244.2107350438203
 30
0.0
 11
192.5608424112446
 21
245.0767604476048
 31
0.0
  0
LINE
  5
1B5
330
1F
100
AcDbEntity
  8
0
  6
Continuous
 62
     7
100
AcDbLine
 10
190.6159379566435
 20
244.9703336240886
 30
0.0
 11
190.6159379566435
 21
247.1353971335498
 31
0.0
  0
LINE
  5
1B6
330
1F
100
AcDbEntity
  8
0
  6
Continuous
 62
     7
100
AcDbLine
 10
185.3126370977444
 20
243.6177213003159
 30
0.0
 11
189.908831175457
 21
245.9158183391721
 31
0.0
  0
LINE
  5
1B7
330
1F
100
AcDbEntity
  8
0
  6
Continuous
 62
     7
100
AcDbLine
 10
189.908831175457
 20
262.3703010110764
 30
0.0
 11
186.0117168584268
 21
264.3188581695915
 31
0.0
  0
LINE
  5
1B8
330
1F
100
AcDbEntity
  8
0
  6
Continuous
 62
     7
100
AcDbLine
 10
194.2928932188136
 20
268.4594463497849
 30
0.0
 11
185.3126370977444
 21
263.9693182892504
 31
0.0
  0
LINE
  5
1B9
330
1F
100
AcDbEntity
  8
0
  6
Continuous
 62
     7
100
AcDbLine
 10
189.908831175457
 20
264.5353645205374
 30
0.0
 11
194.2928932188136
 21
266.7273955422157
 31
0.0
  0
LINE
  5
1BA
330
1F
100
AcDbEntity
  8
0
  6
Continuous
 62
     7
100
AcDbLine
 10
194.2928932188136
 20
245.9427858513892
 30
0.0
 11
189.908831175457
 21
243.7507548297109
 31
0.0
  0
LINE
  5
1BB
330
1F
100
AcDbEntity
  8
0
  6
Continuous
 62
     7
100
AcDbLine
 10
194.5403805922288
 20
246.9325549418813
 30
0.0
 11
194.5403805922289
 21
265.9851138251389
 31
0.0
  0
LINE
  5
1BC
330
1F
100
AcDbEntity
  8
0
  6
Continuous
 62
     7
100
AcDbLine
 10
189.908831175457
 20
264.5353645205374
 30
0.0
 11
189.908831175457
 21
262.3703010110764
 31
0.0
  0
LINE
  5
1BD
330
1F
100
AcDbEntity
  8
0
  6
Continuous
 62
     7
100
AcDbLine
 10
190.6159379566435
 20
261.8578289978853
 30
0.0
 11
190.6159379566435
 21
264.0228925073463
 31
0.0
  0
LINE
  5
1BE
330
1F
100
AcDbEntity
  8
0
  6
Continuous
 62
     7
100
AcDbLine
 10
194.2928932188136
 20
266.7273955422157
 30
0.0
 11
194.2928932188136
 21
268.4594463497849
 31
0.0
  0
LINE
  5
1BF
330
1F
100
AcDbEntity
  8
0
  6
Continuous
 62
     7
100
AcDbLine
 10
194.5403805922289
 20
265.9851138251389
 30
0.0
 11
190.6159379566435
 21
264.0228925073463
 31
0.0
  0
LINE
  5
1C0
330
1F
100
AcDbEntity
  8
0
  6
Continuous
 62
     7
100
AcDbLine
 10
192.5608424112444
 20
267.5934209460003
 30
0.0
 11
194.2928932188136
 21
266.7273955422157
 31
0.0
  0
LINE
  5
1C1
330
1F
100
AcDbEntity
  8
0
  6
Continuous
 62
     7
100
AcDbLine
 10
188.1767803678878
 20
265.401389924322
 30
0.0
 11
189.908831175457
 21
264.5353645205374
 31
0.0
  0
LINE
  5
1C2
330
1F
100
AcDbEntity
  8
0
  6
Continuous
 62
     7
100
AcDbLine
 10
195.0000000000001
 20
243.698263030629
 30
0.0
 11
195.0000000000001
 21
269.6790251441627
 31
0.0
  0
LINE
  5
1C3
330
1F
100
AcDbEntity
  8
0
  6
Continuous
 62
     7
100
AcDbLine
 10
182.6316635416823
 20
272.5811790532509
 30
0.0
 11
181.820881858564
 21
271.0713493731599
 31
0.0
  0
LINE
  5
1C4
330
1F
100
AcDbEntity
  8
0
  6
Continuous
 62
     7
100
AcDbLine
 10
182.4842179689974
 20
272.5031261398892
 30
0.0
 11
181.7358552962428
 21
271.1095325273013
 31
0.0
  0
LINE
  5
1C5
330
1F
100
AcDbEntity
  8
0
  6
Continuous
 62
     7
100
AcDbLine
 10
181.7358552962428
 20
271.1138626543205
 30
0.0
 11
182.4842179689975
 21
272.5074562669084
 31
0.0
  0
LINE
  5
1C6
330
1F
100
AcDbEntity
  8
0
  6
Continuous
 62
     7
100
AcDbLine
 10
182.0519352383549
 20
272.0238208494187
 30
0.0
 11
181.8648445701662
 21
271.6754224462717
 31
0.0
  0
LINE
  5
1C7
330
1F
100
AcDbEntity
  8
0
  6
Continuous
 62
     2
100
AcDbLine
 10
181.6739881172216
 20
272.1759982973941
 30
0.0
 11
181.6739881172216
 21
272.1716681703749
 31
0.0
  0
LINE
  5
1C8
330
1F
100
AcDbEntity
  8
0
  6
Continuous
 62
     7
100
AcDbLine
 10
181.7103956741696
 20
271.789508071219
 30
0.0
 11
181.7103956741696
 21
271.7851779442
 31
0.0
  0
LINE
  5
1C9
330
1F
100
AcDbEntity
  8
0
  6
Continuous
 62
     7
100
AcDbLine
 10
181.8507275265696
 20
272.0465025402376
 30
0.0
 11
181.7103956741696
 21
271.7851779442
 31
0.0
  0
LINE
  5
1CA
330
1F
100
AcDbEntity
  8
0
  6
Continuous
 62
     7
100
AcDbLine
 10
181.7103956741696
 20
271.789508071219
 30
0.0
 11
181.8507275265696
 21
272.0508326672568
 31
0.0
  0
LINE
  5
1CB
330
1F
100
AcDbEntity
  8
0
  6
Continuous
 62
     2
100
AcDbLine
 10
181.8507275265696
 20
272.0508326672568
 30
0.0
 11
181.8507275265696
 21
272.0465025402376
 31
0.0
  0
LINE
  5
1CC
330
1F
100
AcDbEntity
  8
0
  6
Continuous
 62
     2
100
AcDbLine
 10
181.7131706358737
 20
271.4934914322062
 30
0.0
 11
181.7131706358737
 21
271.4891613051869
 31
0.0
  0
LINE
  5
1CD
330
1F
100
AcDbEntity
  8
0
  6
Continuous
 62
     7
100
AcDbLine
 10
182.4842179689975
 20
272.5074562669084
 30
0.0
 11
182.4842179689974
 21
272.5031261398892
 31
0.0
  0
LINE
  5
1CE
330
1F
100
AcDbEntity
  8
0
  6
Continuous
 62
     7
100
AcDbLine
 10
181.7358552962428
 20
271.1138626543205
 30
0.0
 11
181.7358552962428
 21
271.1095325273013
 31
0.0
  0
LINE
  5
1CF
330
1F
100
AcDbEntity
  8
0
  6
Continuous
 62
     7
100
AcDbLine
 10
185.3126370977444
 20
243.6177213003159
 30
0.0
 11
185.3126370977444
 21
239.7206069832857
 31
0.0
  0
LINE
  5
1D0
330
1F
100
AcDbEntity
  8
0
  6
Continuous
 62
     7
100
AcDbLine
 10
185.0651497243291
 20
259.0824348817281
 30
0.0
 11
185.0651497243291
 21
244.3600030173927
 31
0.0
  0
LINE
  5
1D1
330
1F
100
AcDbEntity
  8
0
  6
Continuous
 62
     7
100
AcDbLine
 10
184.6055303165578
 20
238.5010281889079
 30
0.0
 11
184.6055303165579
 21
264.4817903024414
 31
0.0
  0
LINE
  5
1D2
330
1F
100
AcDbEntity
  8
0
  6
Continuous
 62
     7
100
AcDbLine
 10
183.1913167541849
 20
275.5833667670703
 30
0.0
 11
181.7417478527526
 21
274.8585823163543
 31
0.0
  0
LINE
  5
1D3
330
1F
100
AcDbEntity
  8
0
  6
Continuous
 62
     7
100
AcDbLine
 10
180.6168300645437
 20
271.1534441163693
 30
0.0
 11
179.7423028711453
 21
271.5907077130686
 31
0.0
  0
LINE
  5
1D4
330
1F
100
AcDbEntity
  8
0
  6
Continuous
 62
     7
100
AcDbLine
 10
180.1948499111601
 20
271.0698050349004
 30
0.0
 11
179.6175757590195
 21
271.3584421109707
 31
0.0
  0
LINE
  5
1D5
330
1F
100
AcDbEntity
  8
0
  6
Continuous
 62
     7
100
AcDbLine
 10
180.6367936484014
 20
271.2951070305402
 30
0.0
 11
179.7197159173181
 21
271.7536464092094
 31
0.0
  0
LINE
  5
1D6
330
1F
100
AcDbEntity
  8
0
  6
Continuous
 62
     7
100
AcDbLine
 10
179.7423028711453
 20
271.5950378400879
 30
0.0
 11
180.6168300645437
 21
271.1577742433886
 31
0.0
  0
LINE
  5
1D7
330
1F
100
AcDbEntity
  8
0
  6
Continuous
 62
     7
100
AcDbLine
 10
180.5120665779956
 20
271.0628414493021
 30
0.0
 11
179.5949882920648
 21
271.5213805505475
 31
0.0
  0
LINE
  5
1D8
330
1F
100
AcDbEntity
  8
0
  6
Continuous
 62
     7
100
AcDbLine
 10
179.6175757590195
 20
271.3627722379898
 30
0.0
 11
180.1948499111601
 21
271.0741351619196
 31
0.0
  0
LINE
  5
1D9
330
1F
100
AcDbEntity
  8
0
  6
Continuous
 62
     2
100
AcDbLine
 10
179.6175757590195
 20
271.3627722379898
 30
0.0
 11
179.6175757590195
 21
271.3584421109707
 31
0.0
  0
LINE
  5
1DA
330
1F
100
AcDbEntity
  8
0
  6
Continuous
 62
     2
100
AcDbLine
 10
180.1948499111601
 20
271.0741351619196
 30
0.0
 11
180.1948499111601
 21
271.0698050349004
 31
0.0
  0
LINE
  5
1DB
330
1F
100
AcDbEntity
  8
0
  6
Continuous
 62
     2
100
AcDbLine
 10
179.7423028711453
 20
271.5950378400879
 30
0.0
 11
179.7423028711453
 21
271.5907077130686
 31
0.0
  0
LINE
  5
1DC
330
1F
100
AcDbEntity
  8
0
  6
Continuous
 62
     7
100
AcDbLine
 10
180.5396663247356
 20
271.7119571400742
 30
0.0
 11
180.0642050051798
 21
271.7287159312314
 31
0.0
  0
LINE
  5
1DD
330
1F
100
AcDbEntity
  8
0
  6
Continuous
 62
     7
100
AcDbLine
 10
180.0642050051798
 20
271.7287159312314
 30
0.0
 11
180.0642050051796
 21
271.7243858042123
 31
0.0
  0
LINE
  5
1DE
330
1F
100
AcDbEntity
  8
0
  6
Continuous
 62
     7
100
AcDbLine
 10
180.6168300645437
 20
271.1577742433886
 30
0.0
 11
180.6168300645437
 21
271.1534441163693
 31
0.0
  0
LINE
  5
1DF
330
1F
100
AcDbEntity
  8
0
  6
Continuous
 62
     7
100
AcDbLine
 10
180.3149751909998
 20
271.8199721924704
 30
0.0
 11
179.8006982148255
 21
271.8380991869257
 31
0.0
  0
LINE
  5
1E0
330
1F
100
AcDbEntity
  8
0
  6
Continuous
 62
     7
100
AcDbLine
 10
179.8006982148256
 20
271.8424293139448
 30
0.0
 11
180.3149751909998
 21
271.8243023194896
 31
0.0
  0
LINE
  5
1E1
330
1F
100
AcDbEntity
  8
0
  6
Continuous
 62
     2
100
AcDbLine
 10
179.8006982148256
 20
271.8424293139448
 30
0.0
 11
179.8006982148255
 21
271.8380991869257
 31
0.0
  0
LINE
  5
1E2
330
1F
100
AcDbEntity
  8
0
  6
Continuous
 62
     7
100
AcDbLine
 10
180.3149751909998
 20
271.8243023194896
 30
0.0
 11
180.3149751909998
 21
271.8199721924704
 31
0.0
  0
LINE
  5
1E3
330
1F
100
AcDbEntity
  8
0
  6
Continuous
 62
     7
100
AcDbLine
 10
180.0642050051798
 20
271.7287159312314
 30
0.0
 11
180.7841082274818
 21
271.3687643200805
 31
0.0
  0
LINE
  5
1E4
330
1F
100
AcDbEntity
  8
0
  6
Continuous
 62
     7
100
AcDbLine
 10
180.7841082274818
 20
271.3644341930612
 30
0.0
 11
180.0642050051796
 21
271.7243858042123
 31
0.0
  0
LINE
  5
1E5
330
1F
100
AcDbEntity
  8
0
  6
Continuous
 62
     2
100
AcDbLine
 10
180.7841082274818
 20
271.3687643200805
 30
0.0
 11
180.7841082274818
 21
271.3644341930612
 31
0.0
  0
LINE
  5
1E6
330
1F
100
AcDbEntity
  8
0
  6
Continuous
 62
     7
100
AcDbLine
 10
179.6970307438216
 20
272.1332749305311
 30
0.0
 11
178.9486680710671
 21
270.7396813179432
 31
0.0
  0
LINE
  5
1E7
330
1F
100
AcDbEntity
  8
0
  6
Continuous
 62
     7
100
AcDbLine
 10
182.6291575936178
 20
272.5765125013991
 30
0.0
 11
179.6120041815004
 21
272.1714580846726
 31
0.0
  0
LINE
  5
1E8
330
1F
100
AcDbEntity
  8
0
  6
Continuous
 62
     7
100
AcDbLine
 10
182.4842179689975
 20
272.5074562669084
 30
0.0
 11
179.6970307438216
 21
272.1332749305311
 31
0.0
  0
LINE
  5
1E9
330
1F
100
AcDbEntity
  8
0
  6
Continuous
 62
     7
100
AcDbLine
 10
181.5169472713907
 20
272.2869845187537
 30
0.0
 11
180.8201504650968
 21
272.1934391846594
 31
0.0
  0
LINE
  5
1EA
330
1F
100
AcDbEntity
  8
0
  6
Continuous
 62
     7
100
AcDbLine
 10
180.8201504650969
 20
272.1977693116785
 30
0.0
 11
181.5169472713907
 21
272.291314645773
 31
0.0
  0
LINE
  5
1EB
330
1F
100
AcDbEntity
  8
0
  6
Continuous
 62
     2
100
AcDbLine
 10
181.5169472713907
 20
272.291314645773
 30
0.0
 11
181.5169472713907
 21
272.2869845187537
 31
0.0
  0
LINE
  5
1EC
330
1F
100
AcDbEntity
  8
0
  6
Continuous
 62
     2
100
AcDbLine
 10
180.8201504650969
 20
272.1977693116785
 30
0.0
 11
180.8201504650968
 21
272.1934391846594
 31
0.0
  0
LINE
  5
1ED
330
1F
100
AcDbEntity
  8
0
  6
Continuous
 62
     7
100
AcDbLine
 10
179.6120041815005
 20
272.1757882116917
 30
0.0
 11
179.6120041815004
 21
272.1714580846726
 31
0.0
  0
LINE
  5
1EE
330
1F
100
AcDbEntity
  8
0
  6
Continuous
 62
     7
100
AcDbLine
 10
181.7131706358737
 20
271.4891613051869
 30
0.0
 11
180.4562882995928
 21
272.1176024733275
 31
0.0
  0
LINE
  5
1EF
330
1F
100
AcDbEntity
  8
0
  6
Continuous
 62
     7
100
AcDbLine
 10
181.4530155822678
 20
271.91819811717
 30
0.0
 11
181.7103956741696
 21
271.789508071219
 31
0.0
  0
LINE
  5
1F0
330
1F
100
AcDbEntity
  8
0
  6
Continuous
 62
     2
100
AcDbLine
 10
181.487774485056
 20
271.2746989853773
 30
0.0
 11
181.487774485056
 21
271.270368858358
 31
0.0
  0
LINE
  5
1F1
330
1F
100
AcDbEntity
  8
0
  6
Continuous
 62
     7
100
AcDbLine
 10
181.4530155822678
 20
271.91819811717
 30
0.0
 11
181.4530155822678
 21
271.9138679901508
 31
0.0
  0
LINE
  5
1F2
330
1F
100
AcDbEntity
  8
0
  6
Continuous
 62
     7
100
AcDbLine
 10
180.4562882995929
 20
272.1219326003466
 30
0.0
 11
181.7131706358737
 21
271.4934914322062
 31
0.0
  0
LINE
  5
1F3
330
1F
100
AcDbEntity
  8
0
  6
Continuous
 62
     7
100
AcDbLine
 10
181.6739881172216
 20
272.1716681703749
 30
0.0
 11
181.3057016695206
 21
271.9875249465244
 31
0.0
  0
LINE
  5
1F4
330
1F
100
AcDbEntity
  8
0
  6
Continuous
 62
     7
100
AcDbLine
 10
181.3057016695206
 20
271.9875249465244
 30
0.0
 11
181.0483215776188
 21
272.1162149924753
 31
0.0
  0
LINE
  5
1F5
330
1F
100
AcDbEntity
  8
0
  6
Continuous
 62
     7
100
AcDbLine
 10
181.7103956741696
 20
271.7851779442
 30
0.0
 11
181.4530155822678
 21
271.9138679901508
 31
0.0
  0
LINE
  5
1F6
330
1F
100
AcDbEntity
  8
0
  6
Continuous
 62
     7
100
AcDbLine
 10
181.6905835435089
 20
271.6520999320588
 30
0.0
 11
180.7735052992981
 21
272.1106390541643
 31
0.0
  0
LINE
  5
1F7
330
1F
100
AcDbEntity
  8
0
  6
Continuous
 62
     7
100
AcDbLine
 10
181.8213020299688
 20
272.1023413410205
 30
0.0
 11
181.4530155822678
 21
271.91819811717
 31
0.0
  0
LINE
  5
1F8
330
1F
100
AcDbEntity
  8
0
  6
Continuous
 62
     7
100
AcDbLine
 10
181.3057016695206
 20
271.9918550735436
 30
0.0
 11
181.6739881172216
 21
272.1759982973941
 31
0.0
  0
LINE
  5
1F9
330
1F
100
AcDbEntity
  8
0
  6
Continuous
 62
     7
100
AcDbLine
 10
181.0483215776187
 20
272.1205451194945
 30
0.0
 11
181.3057016695206
 21
271.9918550735436
 31
0.0
  0
LINE
  5
1FA
330
1F
100
AcDbEntity
  8
0
  6
Continuous
 62
     7
100
AcDbLine
 10
181.5709707696942
 20
272.1907110456946
 30
0.0
 11
181.0483215776187
 21
272.1205451194945
 31
0.0
  0
LINE
  5
1FB
330
1F
100
AcDbEntity
  8
0
  6
Continuous
 62
     7
100
AcDbLine
 10
181.3057016695206
 20
271.9918550735436
 30
0.0
 11
181.3057016695206
 21
271.9875249465244
 31
0.0
  0
LINE
  5
1FC
330
1F
100
AcDbEntity
  8
0
  6
Continuous
 62
     7
100
AcDbLine
 10
181.0483215776187
 20
272.1205451194945
 30
0.0
 11
181.0483215776188
 21
272.1162149924753
 31
0.0
  0
LINE
  5
1FD
330
1F
100
AcDbEntity
  8
0
  6
Continuous
 62
     7
100
AcDbLine
 10
180.5061487424212
 20
271.9496877998521
 30
0.0
 11
180.5396663247356
 21
271.7119571400742
 31
0.0
  0
LINE
  5
1FE
330
1F
100
AcDbEntity
  8
0
  6
Continuous
 62
     7
100
AcDbLine
 10
180.3149751909998
 20
271.8243023194896
 30
0.0
 11
180.2787212531188
 21
272.0814411695145
 31
0.0
  0
LINE
  5
1FF
330
1F
100
AcDbEntity
  8
0
  6
Continuous
 62
     2
100
AcDbLine
 10
180.4562882995929
 20
272.1219326003466
 30
0.0
 11
180.4562882995928
 21
272.1176024733275
 31
0.0
  0
LINE
  5
200
330
1F
100
AcDbEntity
  8
0
  6
Continuous
 62
     7
100
AcDbLine
 10
180.2784633832138
 20
272.085103704009
 30
0.0
 11
180.2787212531188
 21
272.0814411695145
 31
0.0
  0
LINE
  5
201
330
1F
100
AcDbEntity
  8
0
  6
Continuous
 62
     7
100
AcDbLine
 10
181.5658560567933
 20
271.4198341426659
 30
0.0
 11
180.5061487424212
 21
271.9496877998521
 31
0.0
  0
LINE
  5
202
330
1F
100
AcDbEntity
  8
0
  6
Continuous
 62
     7
100
AcDbLine
 10
181.5417979986594
 20
271.1740953568075
 30
0.0
 11
180.6127355902675
 21
271.0493682446818
 31
0.0
  0
LINE
  5
203
330
1F
100
AcDbEntity
  8
0
  6
Continuous
 62
     7
100
AcDbLine
 10
180.0475353320796
 20
271.0004778723794
 30
0.0
 11
179.4702611799391
 21
271.2891149484497
 31
0.0
  0
LINE
  5
204
330
1F
100
AcDbEntity
  8
0
  6
Continuous
 62
     7
100
AcDbLine
 10
180.6168300645437
 20
271.1577742433886
 30
0.0
 11
181.487774485056
 21
271.2746989853773
 31
0.0
  0
LINE
  5
205
330
1F
100
AcDbEntity
  8
0
  6
Continuous
 62
     7
100
AcDbLine
 10
181.487774485056
 20
271.270368858358
 30
0.0
 11
180.6168300645437
 21
271.1534441163693
 31
0.0
  0
LINE
  5
206
330
1F
100
AcDbEntity
  8
0
  6
Continuous
 62
     7
100
AcDbLine
 10
181.7358552962428
 20
271.1095325273013
 30
0.0
 11
178.9486680710671
 21
270.735351190924
 31
0.0
  0
LINE
  5
207
330
1F
100
AcDbEntity
  8
0
  6
Continuous
 62
     7
100
AcDbLine
 10
178.9486680710671
 20
270.7396813179432
 30
0.0
 11
181.7358552962428
 21
271.1138626543205
 31
0.0
  0
LINE
  5
208
330
1F
100
AcDbEntity
  8
0
  6
Continuous
 62
     7
100
AcDbLine
 10
178.9486680710671
 20
270.7396813179432
 30
0.0
 11
178.9486680710671
 21
270.735351190924
 31
0.0
  0
LINE
  5
209
330
1F
100
AcDbEntity
  8
0
  6
Continuous
 62
     7
100
AcDbLine
 10
195.0000000000001
 20
269.6790251441627
 30
0.0
 11
183.1913167541849
 21
275.5833667670703
 31
0.0
  0
LINE
  5
20A
330
1F
100
AcDbEntity
  8
0
  6
Continuous
 62
     7
100
AcDbLine
 10
195.0000000000001
 20
269.6790251441627
 30
0.0
 11
184.6055303165579
 21
264.4817903024414
 31
0.0
  0
LINE
  5
20B
330
1F
100
AcDbEntity
  8
0
  6
Continuous
 62
     7
100
AcDbLine
 10
189.908831175457
 20
262.3703010110764
 30
0.0
 11
185.3126370977444
 21
260.0722039722201
 31
0.0
  0
LINE
  5
20C
330
1F
100
AcDbEntity
  8
0
  6
Continuous
 62
     7
100
AcDbLine
 10
185.3126370977444
 20
263.9693182892504
 30
0.0
 11
185.3126370977444
 21
260.0722039722201
 31
0.0
  0
LINE
  5
20D
330
1F
100
AcDbEntity
  8
0
  6
Continuous
 62
     7
100
AcDbLine
 10
185.0651497243291
 20
259.0824348817281
 30
0.0
 11
190.6159379566435
 21
261.8578289978853
 31
0.0
  0
LINE
  5
20E
330
1F
100
AcDbEntity
  8
0
  6
Continuous
 62
     7
100
AcDbLine
 10
179.6120041815005
 20
272.1757882116917
 30
0.0
 11
182.6316635416823
 21
272.5811790532509
 31
0.0
  0
LINE
  5
20F
330
1F
100
AcDbEntity
  8
0
  6
Continuous
 62
     7
100
AcDbLine
 10
143.2168437924972
 20
266.7628349634632
 30
0.0
 11
160.4224783999779
 21
258.1600176597226
 31
0.0
  0
LINE
  5
210
330
1F
100
AcDbEntity
  8
0
  6
Continuous
 62
     7
100
AcDbLine
 10
184.6055303165579
 20
264.4817903024414
 30
0.0
 11
172.7968470707427
 21
270.3861319253492
 31
0.0
  0
LINE
  5
211
330
1F
100
AcDbEntity
  8
0
  6
Continuous
 62
     7
100
AcDbLine
 10
160.4224783999779
 20
256.6547319736894
 30
0.0
 11
160.4224783999781
 21
270.5111384342403
 31
0.0
  0
LINE
  5
212
330
1F
100
AcDbEntity
  8
0
  6
Continuous
 62
     7
100
AcDbLine
 10
147.4594844796166
 20
266.3302641572832
 30
0.0
 11
147.4594844796166
 21
268.062314964852
 31
0.0
  0
LINE
  5
213
330
1F
100
AcDbEntity
  8
0
  6
Continuous
 62
     7
100
AcDbLine
 10
160.4224783999779
 20
257.1120385420001
 30
0.0
 11
157.005426025634
 21
258.8205647291721
 31
0.0
  0
LINE
  5
214
330
1F
100
AcDbEntity
  8
0
  6
Continuous
 62
     7
100
AcDbLine
 10
157.005426025634
 20
258.8205647291721
 30
0.0
 11
158.0534051433565
 21
259.3445542880333
 31
0.0
  0
LINE
  5
215
330
1F
100
AcDbEntity
  8
0
  6
Continuous
 62
     7
100
AcDbLine
 10
157.0054260256339
 20
257.0019113812248
 30
0.0
 11
157.005426025634
 21
258.8205647291721
 31
0.0
  0
LINE
  5
216
330
1F
100
AcDbEntity
  8
0
  6
Continuous
 62
     7
100
AcDbLine
 10
147.4594844796166
 20
267.7444777196563
 30
0.0
 11
143.9239505736838
 21
269.5122446726227
 31
0.0
  0
LINE
  5
217
330
1F
100
AcDbEntity
  8
0
  6
Continuous
 62
     7
100
AcDbLine
 10
143.9239505736838
 20
269.5122446726227
 30
0.0
 11
143.9239505736838
 21
269.8300819178185
 31
0.0
  0
LINE
  5
218
330
1F
100
AcDbEntity
  8
0
  6
Continuous
 62
     7
100
AcDbLine
 10
157.0054260256342
 20
277.3535083701589
 30
0.0
 11
164.7836006186873
 21
281.2425956666855
 31
0.0
  0
LINE
  5
219
330
1F
100
AcDbEntity
  8
0
  6
Continuous
 62
     7
100
AcDbLine
 10
168.7309830789204
 20
274.7171609601171
 30
0.0
 11
165.1954491729877
 21
276.4849279130835
 31
0.0
  0
LINE
  5
21A
330
1F
100
AcDbEntity
  8
0
  6
Continuous
 62
     7
100
AcDbLine
 10
169.9330646069374
 20
278.8537356300585
 30
0.0
 11
171.842252916141
 21
279.8083297846601
 31
0.0
  0
LINE
  5
21B
330
1F
100
AcDbEntity
  8
0
  6
Continuous
 62
     7
100
AcDbLine
 10
171.8422529161413
 20
278.0762789770914
 30
0.0
 11
173.645736014505
 21
277.1745374279094
 31
0.0
  0
LINE
  5
21C
330
1F
100
AcDbEntity
  8
0
  6
Continuous
 62
     7
100
AcDbLine
 10
169.9330646069374
 20
280.585786437627
 30
0.0
 11
166.2561093447674
 21
278.7473088065419
 31
0.0
  0
LINE
  5
21D
330
1F
100
AcDbEntity
  8
0
  6
Continuous
 62
     7
100
AcDbLine
 10
161.8720473014105
 20
277.2981007114478
 30
0.0
 11
174.246415972175
 21
271.1109163760655
 31
0.0
  0
LINE
  5
21E
330
1F
100
AcDbEntity
  8
0
  6
Continuous
 62
     7
100
AcDbLine
 10
165.5490025635808
 20
278.7473088065419
 30
0.0
 11
163.4276822200213
 21
279.8079689783218
 31
0.0
  0
LINE
  5
21F
330
1F
100
AcDbEntity
  8
0
  6
Continuous
 62
     7
100
AcDbLine
 10
163.4276822200211
 20
278.0759181707533
 30
0.0
 11
163.4276822200213
 21
279.8079689783218
 31
0.0
  0
LINE
  5
220
330
1F
100
AcDbEntity
  8
0
  6
Continuous
 62
     2
100
AcDbLine
 10
165.5490025635808
 20
277.0152579989734
 30
0.0
 11
165.5490025635808
 21
278.7473088065419
 31
0.0
  0
LINE
  5
221
330
1F
100
AcDbEntity
  8
0
  6
Continuous
 62
     7
100
AcDbLine
 10
163.4276822200211
 20
278.0759181707533
 30
0.0
 11
165.5490025635808
 21
277.0152579989734
 31
0.0
  0
LINE
  5
222
330
1F
100
AcDbEntity
  8
0
  6
Continuous
 62
     7
100
AcDbLine
 10
167.4935462118436
 20
270.4397061434452
 30
0.0
 11
167.4935462118435
 21
266.9756045283075
 31
0.0
  0
LINE
  5
223
330
1F
100
AcDbEntity
  8
0
  6
Continuous
 62
     2
100
AcDbLine
 10
166.2561093447673
 20
277.0152579989734
 30
0.0
 11
166.2561093447674
 21
278.7473088065419
 31
0.0
  0
LINE
  5
224
330
1F
100
AcDbEntity
  8
0
  6
Continuous
 62
     7
100
AcDbLine
 10
165.1954491729877
 20
276.4849279130835
 30
0.0
 11
166.2561093447673
 21
277.0152579989734
 31
0.0
  0
LINE
  5
225
330
1F
100
AcDbEntity
  8
0
  6
Continuous
 62
     2
100
AcDbLine
 10
169.9330646069374
 20
280.585786437627
 30
0.0
 11
169.9330646069374
 21
278.8537356300585
 31
0.0
  0
LINE
  5
226
330
1F
100
AcDbEntity
  8
0
  6
Continuous
 62
     7
100
AcDbLine
 10
171.8422529161413
 20
278.0762789770914
 30
0.0
 11
171.842252916141
 21
279.8083297846601
 31
0.0
  0
LINE
  5
227
330
1F
100
AcDbEntity
  8
0
  6
Continuous
 62
     7
100
AcDbLine
 10
170.0795112163441
 20
280.7625631329237
 30
0.0
 11
170.0795112163441
 21
279.0305123253551
 31
0.0
  0
LINE
  5
228
330
1F
100
AcDbEntity
  8
0
  6
Continuous
 62
     7
100
AcDbLine
 10
170.0795112163441
 20
280.6897006345586
 30
0.0
 11
171.842252916141
 21
279.8083297846601
 31
0.0
  0
LINE
  5
229
330
1F
100
AcDbEntity
  8
0
  6
Continuous
 62
     7
100
AcDbLine
 10
169.9330646069374
 20
280.9393398282202
 30
0.0
 11
167.8117442633778
 21
282.0000000000001
 31
0.0
  0
LINE
  5
22A
330
1F
100
AcDbEntity
  8
0
  6
Continuous
 62
     7
100
AcDbLine
 10
165.5402681077177
 20
280.8642619221703
 30
0.0
 11
164.7836006186873
 21
281.2425956666855
 31
0.0
  0
LINE
  5
22B
330
1F
100
AcDbEntity
  8
0
  6
Continuous
 62
     7
100
AcDbLine
 10
163.4276822200213
 20
279.8079689783218
 30
0.0
 11
167.8117442633778
 21
282.0000000000001
 31
0.0
  0
LINE
  5
22C
330
1F
100
AcDbEntity
  8
0
  6
Continuous
 62
     7
100
AcDbLine
 10
161.4927040843056
 20
279.5971473994947
 30
0.0
 11
158.8439036567203
 21
280.9215476132883
 31
0.0
  0
LINE
  5
22D
330
1F
100
AcDbEntity
  8
0
  6
Continuous
 62
     7
100
AcDbLine
 10
152.0556785573293
 20
277.5274350635928
 30
0.0
 11
158.8439036567203
 21
280.9215476132883
 31
0.0
  0
LINE
  5
22E
330
1F
100
AcDbEntity
  8
0
  6
Continuous
 62
     7
100
AcDbLine
 10
144.6310573548705
 20
281.2397456648223
 30
0.0
 11
152.0556785573293
 21
277.5274350635928
 31
0.0
  0
LINE
  5
22F
330
1F
100
AcDbEntity
  8
0
  6
Continuous
 62
     2
100
AcDbLine
 10
144.6310573548705
 20
281.2397456648223
 30
0.0
 11
143.2168437924975
 21
280.5326388836357
 31
0.0
  0
LINE
  5
230
330
1F
100
AcDbEntity
  8
0
  6
Continuous
 62
     7
100
AcDbLine
 10
157.0054260256339
 20
257.0019113812248
 30
0.0
 11
161.1295851811648
 21
254.9398318034593
 31
0.0
  0
LINE
  5
231
330
1F
100
AcDbEntity
  8
0
  6
Continuous
 62
     7
100
AcDbLine
 10
172.7968470707425
 20
246.1374206193846
 30
0.0
 11
160.4224783999779
 21
252.3246049547671
 31
0.0
  0
LINE
  5
232
330
1F
100
AcDbEntity
  8
0
  6
Continuous
 62
     7
100
AcDbLine
 10
161.8720473014103
 20
251.3173385979144
 30
0.0
 11
172.7968470707425
 21
245.8549387132482
 31
0.0
  0
LINE
  5
233
330
1F
100
AcDbEntity
  8
0
  6
Continuous
 62
     7
100
AcDbLine
 10
164.841895782394
 20
248.948891687278
 30
0.0
 11
162.7205754388345
 21
250.0095518590578
 31
0.0
  0
LINE
  5
234
330
1F
100
AcDbEntity
  8
0
  6
Continuous
 62
     2
100
AcDbLine
 10
164.8418957823941
 20
249.8324143574225
 30
0.0
 11
164.841895782394
 21
248.948891687278
 31
0.0
  0
LINE
  5
235
330
1F
100
AcDbEntity
  8
0
  6
Continuous
 62
     7
100
AcDbLine
 10
162.7205754388345
 20
250.0095518590578
 30
0.0
 11
162.7205754388347
 21
250.8930745292022
 31
0.0
  0
LINE
  5
236
330
1F
100
AcDbEntity
  8
0
  6
Continuous
 62
     2
100
AcDbLine
 10
165.5490025635808
 20
249.4788609668292
 30
0.0
 11
165.5490025635805
 21
248.948891687278
 31
0.0
  0
LINE
  5
237
330
1F
100
AcDbEntity
  8
0
  6
Continuous
 62
     7
100
AcDbLine
 10
165.5490025635805
 20
248.948891687278
 30
0.0
 11
166.0789718431319
 21
249.2138763270536
 31
0.0
  0
LINE
  5
238
330
1F
100
AcDbEntity
  8
0
  6
Continuous
 62
     7
100
AcDbLine
 10
161.8720473014103
 20
251.5998205040509
 30
0.0
 11
161.8720473014103
 21
251.3173385979144
 31
0.0
  0
LINE
  5
239
330
1F
100
AcDbEntity
  8
0
  6
Continuous
 62
     7
100
AcDbLine
 10
167.4935462118434
 20
253.1191980677565
 30
0.0
 11
167.4935462118434
 21
249.6550964526187
 31
0.0
  0
LINE
  5
23A
330
1F
100
AcDbEntity
  8
0
  6
Continuous
 62
     7
100
AcDbLine
 10
161.1295851811648
 20
256.3011785830959
 30
0.0
 11
161.1295851811648
 21
253.5441837491449
 31
0.0
  0
LINE
  5
23B
330
1F
100
AcDbEntity
  8
0
  6
Continuous
 62
     7
100
AcDbLine
 10
161.1295851811648
 20
253.5441837491449
 30
0.0
 11
167.4935462118434
 21
250.3622032338055
 31
0.0
  0
LINE
  5
23C
330
1F
100
AcDbEntity
  8
0
  6
Continuous
 62
     7
100
AcDbLine
 10
160.4224783999779
 20
253.1906303585515
 30
0.0
 11
160.4224783999779
 21
252.3246049547671
 31
0.0
  0
LINE
  5
23D
330
1F
100
AcDbEntity
  8
0
  6
Continuous
 62
     7
100
AcDbLine
 10
160.4224783999779
 20
256.6547319736894
 30
0.0
 11
167.4935462118434
 21
253.1191980677565
 31
0.0
  0
LINE
  5
23E
330
1F
100
AcDbEntity
  8
0
  6
Continuous
 62
     7
100
AcDbLine
 10
161.1295851811648
 20
253.5441837491449
 30
0.0
 11
160.4224783999779
 21
253.1906303585515
 31
0.0
  0
LINE
  5
23F
330
1F
100
AcDbEntity
  8
0
  6
Continuous
 62
     7
100
AcDbLine
 10
167.4935462118434
 20
249.6550964526187
 30
0.0
 11
160.4224783999779
 21
253.1906303585515
 31
0.0
  0
LINE
  5
240
330
1F
100
AcDbEntity
  8
0
  6
Continuous
 62
     7
100
AcDbLine
 10
171.8422529161409
 20
279.5258478785236
 30
0.0
 11
175.0953049159371
 21
277.8993218786254
 31
0.0
  0
LINE
  5
241
330
1F
100
AcDbEntity
  8
0
  6
Continuous
 62
     7
100
AcDbLine
 10
174.246415972175
 20
271.1109163760655
 30
0.0
 11
172.7968470707427
 21
270.3861319253492
 31
0.0
  0
LINE
  5
242
330
1F
100
AcDbEntity
  8
0
  6
Continuous
 62
     7
100
AcDbLine
 10
171.8422529161414
 20
277.6441642439397
 30
0.0
 11
171.8422529161413
 21
278.0762789770914
 31
0.0
  0
LINE
  5
243
330
1F
100
AcDbEntity
  8
0
  6
Continuous
 62
     7
100
AcDbLine
 10
172.7968470707425
 20
246.1374206193846
 30
0.0
 11
172.7968470707424
 21
244.4053698118158
 31
0.0
  0
LINE
  5
244
330
1F
100
AcDbEntity
  8
0
  6
Continuous
 62
     7
100
AcDbLine
 10
175.3777868220737
 20
278.0405628316937
 30
0.0
 11
181.7417478527526
 21
274.8585823163543
 31
0.0
  0
LINE
  5
245
330
1F
100
AcDbEntity
  8
0
  6
Continuous
 62
     7
100
AcDbLine
 10
181.820881858564
 20
271.0713493731599
 30
0.0
 11
178.8012224983821
 21
270.6659585316007
 31
0.0
  0
LINE
  5
246
330
1F
100
AcDbEntity
  8
0
  6
Continuous
 62
     7
100
AcDbLine
 10
178.8012224983821
 20
270.6659585316007
 30
0.0
 11
179.6120041815005
 21
272.1757882116917
 31
0.0
  0
LINE
  5
247
330
1F
100
AcDbEntity
  8
0
  6
Continuous
 62
     7
100
AcDbLine
 10
143.2894165683706
 20
281.3249510264687
 30
0.0
 11
141.8752030059975
 21
280.6178442452822
 31
0.0
  0
LINE
  5
248
330
1F
100
AcDbEntity
  8
0
  6
Continuous
 62
     7
100
AcDbLine
 10
147.4594844796167
 20
276.7225690026964
 30
0.0
 11
142.5097370113109
 21
279.1974427368494
 31
0.0
  0
LINE
  5
249
330
1F
100
AcDbEntity
  8
0
  6
Continuous
 62
     7
100
AcDbLine
 10
171.7839577524333
 20
277.6733118257938
 30
0.0
 11
167.3013195500002
 21
275.4319927245771
 31
0.0
  0
LINE
  5
24A
330
1F
100
AcDbEntity
  8
0
  6
Continuous
 62
     7
100
AcDbLine
 10
172.7968470707427
 20
268.6540811177802
 30
0.0
 11
160.4224783999781
 21
274.8412654531628
 31
0.0
  0
LINE
  5
24B
330
1F
100
AcDbEntity
  8
0
  6
Continuous
 62
     7
100
AcDbLine
 10
161.8720473014105
 20
275.5660499038789
 30
0.0
 11
172.7968470707427
 21
270.1036500192127
 31
0.0
  0
LINE
  5
24C
330
1F
100
AcDbEntity
  8
0
  6
Continuous
 62
     7
100
AcDbLine
 10
161.1295851811649
 20
270.8646918248337
 30
0.0
 11
167.4935462118435
 21
267.6827113094943
 31
0.0
  0
LINE
  5
24D
330
1F
100
AcDbEntity
  8
0
  6
Continuous
 62
     7
100
AcDbLine
 10
175.3777868220737
 20
278.0405628316937
 30
0.0
 11
168.7309830789204
 21
274.7171609601171
 31
0.0
  0
LINE
  5
24E
330
1F
100
AcDbEntity
  8
0
  6
Continuous
 62
     7
100
AcDbLine
 10
179.6120041815004
 20
272.1714580846726
 30
0.0
 11
178.8037284464467
 21
270.6662949564333
 31
0.0
  0
LINE
  5
24F
330
1F
100
AcDbEntity
  8
0
  6
Continuous
 62
     7
100
AcDbLine
 10
172.7968470707427
 20
270.3861319253492
 30
0.0
 11
172.7968470707427
 21
268.6540811177802
 31
0.0
  0
LINE
  5
250
330
1F
100
AcDbEntity
  8
0
  6
Continuous
 62
     7
100
AcDbLine
 10
161.8720473014105
 20
277.2981007114478
 30
0.0
 11
161.8720473014105
 21
275.5660499038789
 31
0.0
  0
LINE
  5
251
330
1F
100
AcDbEntity
  8
0
  6
Continuous
 62
     7
100
AcDbLine
 10
161.1295851811648
 20
273.6216866587847
 30
0.0
 11
161.1295851811649
 21
270.8646918248337
 31
0.0
  0
LINE
  5
252
330
1F
100
AcDbEntity
  8
0
  6
Continuous
 62
     7
100
AcDbLine
 10
173.2136212813533
 20
276.9584800613337
 30
0.0
 11
171.7839577524333
 21
277.6733118257938
 31
0.0
  0
LINE
  5
253
330
1F
100
AcDbEntity
  8
0
  6
Continuous
 62
     7
100
AcDbLine
 10
163.4276822200211
 20
278.0759181707533
 30
0.0
 11
161.8720473014105
 21
277.2981007114478
 31
0.0
  0
LINE
  5
254
330
1F
100
AcDbEntity
  8
0
  6
Continuous
 62
     7
100
AcDbLine
 10
160.4224783999781
 20
270.5111384342403
 30
0.0
 11
167.4935462118435
 21
266.9756045283075
 31
0.0
  0
LINE
  5
255
330
1F
100
AcDbEntity
  8
0
  6
Continuous
 62
     7
100
AcDbLine
 10
160.4224783999781
 20
273.975240049378
 30
0.0
 11
167.4935462118436
 21
270.4397061434452
 31
0.0
  0
LINE
  5
256
330
1F
100
AcDbEntity
  8
0
  6
Continuous
 62
     7
100
AcDbLine
 10
160.4224783999781
 20
270.5111384342403
 30
0.0
 11
161.1295851811649
 21
270.8646918248337
 31
0.0
  0
LINE
  5
257
330
1F
100
AcDbEntity
  8
0
  6
Continuous
 62
     7
100
AcDbLine
 10
160.4224783999781
 20
274.8412654531628
 30
0.0
 11
160.4224783999781
 21
273.975240049378
 31
0.0
  0
LINE
  5
258
330
1F
100
AcDbEntity
  8
0
  6
Continuous
 62
     7
100
AcDbLine
 10
161.8720473014105
 20
275.5660499038789
 30
0.0
 11
160.4224783999781
 21
274.8412654531628
 31
0.0
  0
LINE
  5
259
330
1F
100
AcDbEntity
  8
0
  6
Continuous
 62
     7
100
AcDbLine
 10
147.4594844796167
 20
274.9905181951276
 30
0.0
 11
147.4594844796167
 21
276.7225690026964
 31
0.0
  0
LINE
  5
25A
330
1F
100
AcDbEntity
  8
0
  6
Continuous
 62
     7
100
AcDbLine
 10
161.1295851811649
 20
273.4727754444462
 30
0.0
 11
157.0054260256342
 21
275.5348550222116
 31
0.0
  0
LINE
  5
25B
330
1F
100
AcDbEntity
  8
0
  6
Continuous
 62
     7
100
AcDbLine
 10
147.4594844796167
 20
276.4047317575006
 30
0.0
 11
143.9239505736839
 21
278.172498710467
 31
0.0
  0
LINE
  5
25C
330
1F
100
AcDbEntity
  8
0
  6
Continuous
 62
     7
100
AcDbLine
 10
143.9239505736839
 20
278.172498710467
 30
0.0
 11
142.5097370113109
 21
277.4653919292805
 31
0.0
  0
LINE
  5
25D
330
1F
100
AcDbEntity
  8
0
  6
Continuous
 62
     7
100
AcDbLine
 10
161.2261951298023
 20
275.2431238180748
 30
0.0
 11
157.0054260256342
 21
277.3535083701589
 31
0.0
  0
LINE
  5
25E
330
1F
100
AcDbEntity
  8
0
  6
Continuous
 62
     7
100
AcDbLine
 10
157.0054260256342
 20
277.3535083701589
 30
0.0
 11
157.0054260256342
 21
275.5348550222116
 31
0.0
  0
LINE
  5
25F
330
1F
100
AcDbEntity
  8
0
  6
Continuous
 62
     7
100
AcDbLine
 10
142.5097370113109
 20
279.1974427368494
 30
0.0
 11
142.5097370113109
 21
277.4653919292805
 31
0.0
  0
LINE
  5
260
330
1F
100
AcDbEntity
  8
0
  6
Continuous
 62
     7
100
AcDbLine
 10
143.9239505736839
 20
278.172498710467
 30
0.0
 11
143.923950573684
 21
278.4903359556628
 31
0.0
  0
LINE
  5
261
330
1F
100
AcDbEntity
  8
0
  6
Continuous
 62
     7
100
AcDbLine
 10
142.5097370113109
 20
277.4653919292805
 30
0.0
 11
147.4594844796167
 21
274.9905181951276
 31
0.0
  0
LINE
  5
262
330
1F
100
AcDbEntity
  8
0
  6
Continuous
 62
     7
100
AcDbLine
 10
147.4594844796166
 20
268.062314964852
 30
0.0
 11
142.5097370113108
 21
270.537188699005
 31
0.0
  0
LINE
  5
263
330
1F
100
AcDbEntity
  8
0
  6
Continuous
 62
     7
100
AcDbLine
 10
142.5097370113108
 20
270.537188699005
 30
0.0
 11
142.5097370113107
 21
268.8051378914362
 31
0.0
  0
LINE
  5
264
330
1F
100
AcDbEntity
  8
0
  6
Continuous
 62
     7
100
AcDbLine
 10
143.9239505736838
 20
269.5122446726227
 30
0.0
 11
142.5097370113107
 21
268.8051378914362
 31
0.0
  0
LINE
  5
265
330
1F
100
AcDbEntity
  8
0
  6
Continuous
 62
     7
100
AcDbLine
 10
142.5097370113107
 20
268.8051378914362
 30
0.0
 11
147.4594844796166
 21
266.3302641572832
 31
0.0
  0
LINE
  5
266
330
1F
100
AcDbEntity
  8
0
  6
Continuous
 62
     7
100
AcDbLine
 10
141.0955234489377
 20
278.9952228440623
 30
0.0
 11
141.0955234489377
 21
270.4215713465964
 31
0.0
  0
LINE
  5
267
330
1F
100
AcDbEntity
  8
0
  6
Continuous
 62
     7
100
AcDbLine
 10
127.0220311425989
 20
155.2259852874485
 30
0.0
 11
127.0220311425989
 21
141.2259852874485
 31
0.0
  0
LINE
  5
268
330
1F
100
AcDbEntity
  8
0
  6
Continuous
 62
     7
100
AcDbLine
 10
129.0220311425989
 20
141.2259852874485
 30
0.0
 11
127.0220311425989
 21
141.2259852874485
 31
0.0
  0
LINE
  5
269
330
1F
100
AcDbEntity
  8
0
  6
Continuous
 62
     7
100
AcDbLine
 10
157.0220311425993
 20
141.2259852874486
 30
0.0
 11
155.0220311425992
 21
141.2259852874485
 31
0.0
  0
LINE
  5
26A
330
1F
100
AcDbEntity
  8
0
  6
Continuous
 62
     7
100
AcDbLine
 10
157.0220311425993
 20
155.2259852874485
 30
0.0
 11
157.0220311425993
 21
141.2259852874486
 31
0.0
  0
LINE
  5
26B
330
1F
100
AcDbEntity
  8
0
  6
Continuous
 62
     7
100
AcDbLine
 10
157.0220311425992
 20
158.7259852874485
 30
0.0
 11
157.0220311425993
 21
155.7259852874485
 31
0.0
  0
LINE
  5
26C
330
1F
100
AcDbEntity
  8
0
  6
Continuous
 62
     7
100
AcDbLine
 10
157.0220311425993
 20
155.7259852874485
 30
0.0
 11
157.0220311425993
 21
155.2259852874485
 31
0.0
  0
LINE
  5
26D
330
1F
100
AcDbEntity
  8
0
  6
Continuous
 62
     7
100
AcDbLine
 10
127.022031142599
 20
124.5259852874484
 30
0.0
 11
157.0220311425994
 21
124.5259852874487
 31
0.0
  0
LINE
  5
26E
330
1F
100
AcDbEntity
  8
0
  6
Continuous
 62
     7
100
AcDbLine
 10
134.0720311425988
 20
158.7259852874485
 30
0.0
 11
149.9720311425988
 21
158.7259852874485
 31
0.0
  0
LINE
  5
26F
330
1F
100
AcDbEntity
  8
0
  6
Continuous
 62
     7
100
AcDbLine
 10
134.0220311425989
 20
158.7259852874485
 30
0.0
 11
130.2720311425987
 21
158.7259852874485
 31
0.0
  0
LINE
  5
270
330
1F
100
AcDbEntity
  8
0
  6
Continuous
 62
     7
100
AcDbLine
 10
153.7720311425988
 20
158.7259852874485
 30
0.0
 11
150.0220311425989
 21
158.7259852874485
 31
0.0
  0
LINE
  5
271
330
1F
100
AcDbEntity
  8
0
  6
Continuous
 62
     7
100
AcDbLine
 10
154.0220311425989
 20
158.7259852874485
 30
0.0
 11
153.7720311425988
 21
158.7259852874485
 31
0.0
  0
LINE
  5
272
330
1F
100
AcDbEntity
  8
0
  6
Continuous
 62
     7
100
AcDbLine
 10
129.0220311425988
 20
158.7259852874485
 30
0.0
 11
127.0220311425988
 21
158.7259852874485
 31
0.0
  0
LINE
  5
273
330
1F
100
AcDbEntity
  8
0
  6
Continuous
 62
     7
100
AcDbLine
 10
130.2720311425987
 20
158.7259852874485
 30
0.0
 11
130.0220311425987
 21
158.7259852874485
 31
0.0
  0
LINE
  5
274
330
1F
100
AcDbEntity
  8
0
  6
Continuous
 62
     7
100
AcDbLine
 10
134.0220311425989
 20
158.7259852874485
 30
0.0
 11
134.0720311425988
 21
158.7259852874485
 31
0.0
  0
LINE
  5
275
330
1F
100
AcDbEntity
  8
0
  6
Continuous
 62
     7
100
AcDbLine
 10
149.9720311425988
 20
158.7259852874485
 30
0.0
 11
150.0220311425989
 21
158.7259852874485
 31
0.0
  0
LINE
  5
276
330
1F
100
AcDbEntity
  8
0
  6
Continuous
 62
     7
100
AcDbLine
 10
130.0220311425987
 20
158.7259852874485
 30
0.0
 11
129.0220311425988
 21
158.7259852874485
 31
0.0
  0
LINE
  5
277
330
1F
100
AcDbEntity
  8
0
  6
Continuous
 62
     7
100
AcDbLine
 10
134.0720311425988
 20
185.1259852874484
 30
0.0
 11
134.0720311425988
 21
158.7259852874485
 31
0.0
  0
LINE
  5
278
330
1F
100
AcDbEntity
  8
0
  6
Continuous
 62
     7
100
AcDbLine
 10
134.022031142599
 20
148.7259852874485
 30
0.0
 11
130.0220311425988
 21
148.7259852874485
 31
0.0
  0
LINE
  5
279
330
1F
100
AcDbEntity
  8
0
  6
Continuous
 62
     7
100
AcDbLine
 10
127.0220311425988
 20
155.7259852874485
 30
0.0
 11
127.0220311425989
 21
155.2259852874485
 31
0.0
  0
LINE
  5
27A
330
1F
100
AcDbEntity
  8
0
  6
Continuous
 62
     7
100
AcDbLine
 10
127.0220311425989
 20
155.2259852874485
 30
0.0
 11
125.0220311425989
 21
155.2259852874485
 31
0.0
  0
LINE
  5
27B
330
1F
100
AcDbEntity
  8
0
  6
Continuous
 62
     2
100
AcDbLine
 10
127.0220311425988
 20
155.7259852874485
 30
0.0
 11
125.0220311425989
 21
155.7259852874485
 31
0.0
  0
LINE
  5
27C
330
1F
100
AcDbEntity
  8
0
  6
Continuous
 62
     7
100
AcDbLine
 10
138.0220311425988
 20
179.1259852874484
 30
0.0
 11
138.0220311425988
 21
186.1259852874484
 31
0.0
  0
LINE
  5
27D
330
1F
100
AcDbEntity
  8
0
  6
Continuous
 62
     7
100
AcDbLine
 10
132.3720311425988
 20
158.7259852874485
 30
0.0
 11
132.3720311425988
 21
166.2259852874484
 31
0.0
  0
LINE
  5
27E
330
1F
100
AcDbEntity
  8
0
  6
Continuous
 62
     7
100
AcDbLine
 10
130.2720311425987
 20
166.2259852874484
 30
0.0
 11
132.3720311425988
 21
166.2259852874484
 31
0.0
  0
LINE
  5
27F
330
1F
100
AcDbEntity
  8
0
  6
Continuous
 62
     7
100
AcDbLine
 10
130.2720311425987
 20
166.2259852874484
 30
0.0
 11
130.2720311425987
 21
158.7259852874485
 31
0.0
  0
LINE
  5
280
330
1F
100
AcDbEntity
  8
0
  6
Continuous
 62
     7
100
AcDbLine
 10
127.022031142599
 20
124.5259852874484
 30
0.0
 11
127.0220311425989
 21
141.2259852874485
 31
0.0
  0
LINE
  5
281
330
1F
100
AcDbEntity
  8
0
  6
Continuous
 62
     7
100
AcDbLine
 10
127.0220311425988
 20
158.7259852874485
 30
0.0
 11
127.0220311425988
 21
155.7259852874485
 31
0.0
  0
LINE
  5
282
330
1F
100
AcDbEntity
  8
0
  6
Continuous
 62
     7
100
AcDbLine
 10
125.0220311425989
 20
158.7259852874485
 30
0.0
 11
127.0220311425988
 21
158.7259852874485
 31
0.0
  0
LINE
  5
283
330
1F
100
AcDbEntity
  8
0
  6
Continuous
 62
     7
100
AcDbLine
 10
148.0220311425988
 20
179.1259852874484
 30
0.0
 11
148.0220311425988
 21
186.1259852874484
 31
0.0
  0
LINE
  5
284
330
1F
100
AcDbEntity
  8
0
  6
Continuous
 62
     7
100
AcDbLine
 10
146.0220311425988
 20
186.1259852874484
 30
0.0
 11
146.0220311425988
 21
179.1259852874484
 31
0.0
  0
LINE
  5
285
330
1F
100
AcDbEntity
  8
0
  6
Continuous
 62
     7
100
AcDbLine
 10
153.7720311425988
 20
166.2259852874484
 30
0.0
 11
151.6720311425988
 21
166.2259852874484
 31
0.0
  0
LINE
  5
286
330
1F
100
AcDbEntity
  8
0
  6
Continuous
 62
     7
100
AcDbLine
 10
157.0220311425992
 20
158.7259852874485
 30
0.0
 11
159.0220311425989
 21
158.7259852874485
 31
0.0
  0
LINE
  5
287
330
1F
100
AcDbEntity
  8
0
  6
Continuous
 62
     7
100
AcDbLine
 10
146.0220311425988
 20
179.1259852874484
 30
0.0
 11
148.0220311425988
 21
179.1259852874484
 31
0.0
  0
LINE
  5
288
330
1F
100
AcDbEntity
  8
0
  6
Continuous
 62
     7
100
AcDbLine
 10
148.0220311425988
 20
186.1259852874484
 30
0.0
 11
146.0220311425988
 21
186.1259852874484
 31
0.0
  0
LINE
  5
289
330
1F
100
AcDbEntity
  8
0
  6
Continuous
 62
     7
100
AcDbLine
 10
146.9720311425988
 20
188.1259852874484
 30
0.0
 11
137.0720311425988
 21
188.1259852874484
 31
0.0
  0
LINE
  5
28A
330
1F
100
AcDbEntity
  8
0
  6
Continuous
 62
     7
100
AcDbLine
 10
136.0220311425988
 20
186.1259852874484
 30
0.0
 11
136.0220311425988
 21
179.1259852874484
 31
0.0
  0
LINE
  5
28B
330
1F
100
AcDbEntity
  8
0
  6
Continuous
 62
     7
100
AcDbLine
 10
130.0220311425988
 20
148.7259852874485
 30
0.0
 11
130.0220311425987
 21
158.7259852874485
 31
0.0
  0
LINE
  5
28C
330
1F
100
AcDbEntity
  8
0
  6
Continuous
 62
     7
100
AcDbLine
 10
125.0220311425989
 20
155.2259852874485
 30
0.0
 11
125.0220311425989
 21
155.7259852874485
 31
0.0
  0
LINE
  5
28D
330
1F
100
AcDbEntity
  8
0
  6
Continuous
 62
     7
100
AcDbLine
 10
125.0220311425989
 20
155.7259852874485
 30
0.0
 11
125.0220311425989
 21
158.7259852874485
 31
0.0
  0
LINE
  5
28E
330
1F
100
AcDbEntity
  8
0
  6
Continuous
 62
     7
100
AcDbLine
 10
134.0220311425989
 20
158.7259852874485
 30
0.0
 11
134.022031142599
 21
148.7259852874485
 31
0.0
  0
LINE
  5
28F
330
1F
100
AcDbEntity
  8
0
  6
Continuous
 62
     7
100
AcDbLine
 10
129.0220311425989
 20
141.2259852874485
 30
0.0
 11
129.0220311425988
 21
158.7259852874485
 31
0.0
  0
LINE
  5
290
330
1F
100
AcDbEntity
  8
0
  6
Continuous
 62
     7
100
AcDbLine
 10
136.0220311425988
 20
179.1259852874484
 30
0.0
 11
138.0220311425988
 21
179.1259852874484
 31
0.0
  0
LINE
  5
291
330
1F
100
AcDbEntity
  8
0
  6
Continuous
 62
     7
100
AcDbLine
 10
138.0220311425988
 20
186.1259852874484
 30
0.0
 11
136.0220311425988
 21
186.1259852874484
 31
0.0
  0
LINE
  5
292
330
1F
100
AcDbEntity
  8
0
  6
Continuous
 62
     2
100
AcDbLine
 10
157.0220311425993
 20
155.7259852874485
 30
0.0
 11
159.0220311425989
 21
155.7259852874485
 31
0.0
  0
LINE
  5
293
330
1F
100
AcDbEntity
  8
0
  6
Continuous
 62
     7
100
AcDbLine
 10
157.0220311425994
 20
124.5259852874487
 30
0.0
 11
157.0220311425993
 21
141.2259852874486
 31
0.0
  0
LINE
  5
294
330
1F
100
AcDbEntity
  8
0
  6
Continuous
 62
     7
100
AcDbLine
 10
157.0220311425993
 20
155.2259852874485
 30
0.0
 11
159.0220311425989
 21
155.2259852874485
 31
0.0
  0
LINE
  5
295
330
1F
100
AcDbEntity
  8
0
  6
Continuous
 62
     7
100
AcDbLine
 10
159.0220311425989
 20
155.7259852874485
 30
0.0
 11
159.0220311425989
 21
158.7259852874485
 31
0.0
  0
LINE
  5
296
330
1F
100
AcDbEntity
  8
0
  6
Continuous
 62
     7
100
AcDbLine
 10
159.0220311425989
 20
155.7259852874485
 30
0.0
 11
159.0220311425989
 21
155.2259852874485
 31
0.0
  0
LINE
  5
297
330
1F
100
AcDbEntity
  8
0
  6
Continuous
 62
     7
100
AcDbLine
 10
149.9720311425988
 20
158.7259852874485
 30
0.0
 11
149.9720311425988
 21
185.1259852874484
 31
0.0
  0
LINE
  5
298
330
1F
100
AcDbEntity
  8
0
  6
Continuous
 62
     7
100
AcDbLine
 10
154.0220311425989
 20
158.7259852874485
 30
0.0
 11
154.0220311425989
 21
148.7259852874485
 31
0.0
  0
LINE
  5
299
330
1F
100
AcDbEntity
  8
0
  6
Continuous
 62
     7
100
AcDbLine
 10
155.0220311425992
 20
158.7259852874485
 30
0.0
 11
154.0220311425989
 21
158.7259852874485
 31
0.0
  0
LINE
  5
29A
330
1F
100
AcDbEntity
  8
0
  6
Continuous
 62
     7
100
AcDbLine
 10
157.0220311425992
 20
158.7259852874485
 30
0.0
 11
155.0220311425992
 21
158.7259852874485
 31
0.0
  0
LINE
  5
29B
330
1F
100
AcDbEntity
  8
0
  6
Continuous
 62
     7
100
AcDbLine
 10
155.0220311425992
 20
141.2259852874485
 30
0.0
 11
155.0220311425992
 21
158.7259852874485
 31
0.0
  0
LINE
  5
29C
330
1F
100
AcDbEntity
  8
0
  6
Continuous
 62
     7
100
AcDbLine
 10
154.0220311425989
 20
148.7259852874485
 30
0.0
 11
150.0220311425989
 21
148.7259852874485
 31
0.0
  0
LINE
  5
29D
330
1F
100
AcDbEntity
  8
0
  6
Continuous
 62
     7
100
AcDbLine
 10
150.0220311425989
 20
158.7259852874485
 30
0.0
 11
150.0220311425989
 21
148.7259852874485
 31
0.0
  0
LINE
  5
29E
330
1F
100
AcDbEntity
  8
0
  6
Continuous
 62
     7
100
AcDbLine
 10
153.7720311425988
 20
158.7259852874485
 30
0.0
 11
153.7720311425988
 21
166.2259852874484
 31
0.0
  0
LINE
  5
29F
330
1F
100
AcDbEntity
  8
0
  6
Continuous
 62
     7
100
AcDbLine
 10
151.6720311425988
 20
158.7259852874485
 30
0.0
 11
151.6720311425988
 21
166.2259852874484
 31
0.0
  0
ARC
  5
2A0
330
1F
100
AcDbEntity
  8
0
  6
Continuous
 62
     7
100
AcDbCircle
 10
76.5720313096258
 20
155.7259852874484
 30
0.0
 40
0.5
100
AcDbArc
 50
180.0
 51
270.0
  0
ARC
  5
2A1
330
1F
100
AcDbEntity
  8
0
  6
Continuous
 62
     7
100
AcDbCircle
 10
81.77203130962585
 20
155.7259852874484
 30
0.0
 40
0.5
100
AcDbArc
 50
270.0
 51
0.0
  0
ARC
  5
2A2
330
1F
100
AcDbEntity
  8
0
  6
Continuous
 62
     7
100
AcDbCircle
 10
80.00536888305828
 20
136.7275130420885
 30
0.0
 40
0.1041670788344504
100
AcDbArc
 50
180.0
 51
299.9705034966714
  0
ARC
  5
2A3
330
1F
100
AcDbEntity
  8
0
  6
Continuous
 62
     7
100
AcDbCircle
 10
78.75536310698845
 20
138.2647351750447
 30
0.0
 40
0.1041667608679166
100
AcDbArc
 50
40.96753796687329
 51
179.9999254467903
  0
ARC
  5
2A4
330
1F
100
AcDbEntity
  8
0
  6
Continuous
 62
     7
100
AcDbCircle
 10
78.33869373619342
 20
136.7275130420885
 30
0.0
 40
0.1041666080853361
100
AcDbArc
 50
180.0
 51
240.0294965033276
  0
ARC
  5
2A5
330
1F
100
AcDbEntity
  8
0
  6
Continuous
 62
     7
100
AcDbCircle
 10
79.58869951226325
 20
138.2647351750447
 30
0.0
 40
0.104167486539754
100
AcDbArc
 50
0.00007455269037
 51
139.0324620326186
  0
ARC
  5
2A6
330
1F
100
AcDbEntity
  8
0
  6
Continuous
 62
     7
100
AcDbCircle
 10
80.00536861818313
 20
138.0244573797922
 30
0.0
 40
0.1041668139594799
100
AcDbArc
 50
60.02941233816147
 51
179.9999158350567
  0
ARC
  5
2A7
330
1F
100
AcDbEntity
  8
0
  6
Continuous
 62
     7
100
AcDbCircle
 10
182.0268744758203
 20
272.0376546994782
 30
0.0
 40
0.0286254646474704
100
AcDbArc
 50
331.1007606854337
 51
359.3401449829754
  0
ARC
  5
2A8
330
1F
100
AcDbEntity
  8
0
  6
Continuous
 62
     7
100
AcDbCircle
 10
137.0720311425988
 20
185.1259852874484
 30
0.0
 40
3.0
100
AcDbArc
 50
90.0
 51
180.0
  0
ARC
  5
2A9
330
1F
100
AcDbEntity
  8
0
  6
Continuous
 62
     7
100
AcDbCircle
 10
146.9720311425988
 20
185.1259852874484
 30
0.0
 40
3.0
100
AcDbArc
 50
0.0
 51
90.0
  0
SPLINE
  5
2AA
330
1F
100
AcDbEntity
  8
0
  6
Continuous
 62
     7
100
AcDbSpline
210
0.0
220
0.0
230
1.0
 70
     8
 71
     3
 72
    15
 73
    11
 74
     9
 42
0.000000001
 43
0.0000000001
 44
0.00000001
 40
0.0
 40
0.0
 40
0.0
 40
0.0
 40
0.0406438537849409
 40
0.0812876417508698
 40
0.1219313956246474
 40
0.1625751679454439
 40
0.2032190011597541
 40
0.2438629020369804
 40
0.2845068370062373
 40
0.3251507516846768
 40
0.3251507516846768
 40
0.3251507516846768
 40
0.3251507516846768
 10
80.68240853615197
 20
136.9976920299311
 30
0.0
 10
80.69343673099773
 20
137.00585925796
 30
0.0
 10
80.71549309432172
 20
137.022193710256
 30
0.0
 10
80.73349773772603
 20
137.0603822911364
 30
0.0
 10
80.73636663344904
 20
137.1017837860773
 30
0.0
 10
80.72295880828952
 20
137.1413216696762
 30
0.0
 10
80.6954539504759
 20
137.1727302739266
 30
0.0
 10
80.65818333444643
 20
137.1909847020243
 30
0.0
 10
80.6161122479437
 20
137.1945297545091
 30
0.0
 10
80.59092670757006
 20
137.1836215130164
 30
0.0
 10
80.57833394249138
 20
137.1781673875792
 30
0.0
 11
80.68240853615197
 21
136.9976920299311
 31
0.0
 11
80.71297980247766
 21
137.0244748784508
 31
0.0
 11
80.73097512801613
 21
137.0609177931681
 31
0.0
 11
80.7336538582745
 21
137.1014731789256
 31
0.0
 11
80.72060932631061
 21
137.1399667702103
 31
0.0
 11
80.69382635664614
 21
137.1705378982561
 31
0.0
 11
80.65738327708951
 21
137.1885331423981
 31
0.0
 11
80.6168277078911
 21
137.1912118605401
 31
0.0
 11
80.57833394249138
 21
137.1781673875792
 31
0.0
  0
SPLINE
  5
2AB
330
1F
100
AcDbEntity
  8
0
  6
Continuous
 62
     7
100
AcDbSpline
210
0.0
220
0.0
230
1.0
 70
     8
 71
     3
 72
    15
 73
    11
 74
     9
 42
0.000000001
 43
0.0000000001
 44
0.00000001
 40
0.0
 40
0.0
 40
0.0
 40
0.0
 40
0.0406439266176159
 40
0.0812878056428739
 40
0.1219316154608306
 40
0.1625753758423328
 40
0.20321913622386
 40
0.2438629460418482
 40
0.2845068250670904
 40
0.3251507516847008
 40
0.3251507516847008
 40
0.3251507516847008
 40
0.3251507516847008
 10
80.63037123932168
 20
137.2718186207819
 30
0.0
 10
80.64400476912745
 20
137.2733845688361
 30
0.0
 10
80.67127181013183
 20
137.2765164755599
 30
0.0
 10
80.70594628942452
 20
137.3006042453187
 30
0.0
 10
80.72911401283777
 20
137.3350364147238
 30
0.0
 10
80.73725054266731
 20
137.3759852874485
 30
0.0
 10
80.72911401283778
 20
137.4169341601733
 30
0.0
 10
80.70594628942447
 20
137.4513663295785
 30
0.0
 10
80.67127181013187
 20
137.4754540993372
 30
0.0
 10
80.64400476912743
 20
137.4785860060609
 30
0.0
 10
80.63037123932168
 20
137.4801519541152
 30
0.0
 11
80.63037123932168
 21
137.2718186207819
 31
0.0
 11
80.6702341559648
 21
137.2797481287548
 31
0.0
 11
80.70402852886187
 21
137.3023283310749
 31
0.0
 11
80.72660883331727
 21
137.3361225511133
 31
0.0
 11
80.7345383771571
 21
137.3759852874485
 31
0.0
 11
80.72660883331729
 21
137.4158480237838
 31
0.0
 11
80.70402852886187
 21
137.4496422438222
 31
0.0
 11
80.6702341559648
 21
137.4722224461424
 31
0.0
 11
80.63037123932168
 21
137.4801519541152
 31
0.0
  0
SPLINE
  5
2AC
330
1F
100
AcDbEntity
  8
0
  6
Continuous
 62
     7
100
AcDbSpline
210
0.0
220
0.0
230
1.0
 70
     8
 71
     3
 72
    15
 73
    11
 74
     9
 42
0.000000001
 43
0.0000000001
 44
0.00000001
 40
0.0
 40
0.0
 40
0.0
 40
0.0
 40
0.0406439146784303
 40
0.0812878496476835
 40
0.1219317505249096
 40
0.1625755837392506
 40
0.2032193560600202
 40
0.2438631099337694
 40
0.2845068978996791
 40
0.3251507516846895
 40
0.3251507516846895
 40
0.3251507516846895
 40
0.3251507516846895
 10
80.57833394249138
 20
137.5738031873179
 30
0.0
 10
80.59092670757006
 20
137.5683490618808
 30
0.0
 10
80.6161122479437
 20
137.5574408203881
 30
0.0
 10
80.65818333444645
 20
137.5609858728728
 30
0.0
 10
80.69545395047587
 20
137.5792403009705
 30
0.0
 10
80.72295880828949
 20
137.6106489052209
 30
0.0
 10
80.73636663344905
 20
137.6501867888198
 30
0.0
 10
80.73349773772603
 20
137.6915882837607
 30
0.0
 10
80.71549309432169
 20
137.7297768646411
 30
0.0
 10
80.69343673099767
 20
137.746111316937
 30
0.0
 10
80.68240853615191
 20
137.754278544966
 30
0.0
 11
80.57833394249138
 21
137.5738031873179
 31
0.0
 11
80.6168277078911
 21
137.5607587143571
 31
0.0
 11
80.65738327708951
 21
137.5634374324989
 31
0.0
 11
80.69382635664613
 21
137.581432676641
 31
0.0
 11
80.72060932631061
 21
137.6120038046868
 31
0.0
 11
80.7336538582745
 21
137.6504973959715
 31
0.0
 11
80.73097512801613
 21
137.691052781729
 31
0.0
 11
80.71297980247765
 21
137.7274956964463
 31
0.0
 11
80.68240853615191
 21
137.754278544966
 31
0.0
  0
SPLINE
  5
2AD
330
1F
100
AcDbEntity
  8
0
  6
Continuous
 62
     7
100
AcDbSpline
210
0.0
220
0.0
230
1.0
 70
     8
 71
     3
 72
    15
 73
    11
 74
     9
 42
0.000000001
 43
0.0000000001
 44
0.00000001
 40
0.0
 40
0.0
 40
0.0
 40
0.0
 40
0.0406437567720902
 40
0.08128756544198
 40
0.1219314456152454
 40
0.1625753758422846
 40
0.2032193060693656
 40
0.2438631862426427
 40
0.2845069949125325
 40
0.3251507516846227
 40
0.3251507516846227
 40
0.3251507516846227
 40
0.3251507516846227
 10
78.65119562044879
 20
136.9677908198662
 30
0.0
 10
78.65276157888354
 20
136.9541573459728
 30
0.0
 10
78.65589351020168
 20
136.9268903834204
 30
0.0
 10
78.67998143029257
 20
136.8922160583096
 30
0.0
 10
78.71441375031571
 20
136.8690484759775
 30
0.0
 10
78.75536275828418
 20
136.8609120051406
 30
0.0
 10
78.79631176625264
 20
136.8690484759776
 30
0.0
 10
78.83074408627587
 20
136.8922160583095
 30
0.0
 10
78.85483200636673
 20
136.9268903834204
 30
0.0
 10
78.85796393768489
 20
136.9541573459728
 30
0.0
 10
78.85952989611962
 20
136.9677908198662
 30
0.0
 11
78.65119562044879
 21
136.9677908198662
 31
0.0
 11
78.65912516428858
 21
136.927928083531
 31
0.0
 11
78.68170546874398
 21
136.8941338634926
 31
0.0
 11
78.71549984164106
 21
136.8715536611725
 31
0.0
 11
78.75536275828418
 21
136.8636241531996
 31
0.0
 11
78.79522567492734
 21
136.8715536611725
 31
0.0
 11
78.82902004782443
 21
136.8941338634926
 31
0.0
 11
78.85160035227983
 21
136.927928083531
 31
0.0
 11
78.85952989611962
 21
136.9677908198662
 31
0.0
  0
SPLINE
  5
2AE
330
1F
100
AcDbEntity
  8
0
  6
Continuous
 62
     7
100
AcDbSpline
210
0.0
220
0.0
230
1.0
 70
     8
 71
     3
 72
    15
 73
    11
 74
     9
 42
0.000000001
 43
0.0000000001
 44
0.00000001
 40
0.0
 40
0.0
 40
0.0
 40
0.0
 40
0.0406437567720623
 40
0.0812875654419521
 40
0.1219314456152491
 40
0.1625753758423106
 40
0.2032193060693777
 40
0.2438631862426588
 40
0.2845069949125486
 40
0.3251507516846109
 40
0.3251507516846109
 40
0.3251507516846109
 40
0.3251507516846109
 10
78.44286134477795
 20
138.0244575328087
 30
0.0
 10
78.4412953863432
 20
138.038091006702
 30
0.0
 10
78.43816345502505
 20
138.0653579692544
 30
0.0
 10
78.4140755349342
 20
138.1000322943653
 30
0.0
 10
78.379643214911
 20
138.1231998766974
 30
0.0
 10
78.33869420694253
 20
138.1313363475343
 30
0.0
 10
78.2977451989741
 20
138.1231998766973
 30
0.0
 10
78.26331287895087
 20
138.1000322943653
 30
0.0
 10
78.23922495886
 20
138.0653579692544
 30
0.0
 10
78.23609302754187
 20
138.038091006702
 30
0.0
 10
78.23452706910712
 20
138.0244575328087
 30
0.0
 11
78.44286134477795
 21
138.0244575328087
 31
0.0
 11
78.43493180093816
 21
138.0643202691438
 31
0.0
 11
78.41235149648276
 21
138.0981144891823
 31
0.0
 11
78.37855712358568
 21
138.1206946915025
 31
0.0
 11
78.33869420694253
 21
138.1286241994753
 31
0.0
 11
78.29883129029939
 21
138.1206946915024
 31
0.0
 11
78.26503691740231
 21
138.0981144891823
 31
0.0
 11
78.24245661294691
 21
138.0643202691438
 31
0.0
 11
78.23452706910712
 21
138.0244575328087
 31
0.0
  0
SPLINE
  5
2AF
330
1F
100
AcDbEntity
  8
0
  6
Continuous
 62
     7
100
AcDbSpline
210
0.0
220
0.0
230
1.0
 70
     8
 71
     3
 72
    15
 73
    11
 74
     9
 42
0.000000001
 43
0.0000000001
 44
0.00000001
 40
0.0
 40
0.0
 40
0.0
 40
0.0
 40
0.0406437567721181
 40
0.0812875654420079
 40
0.121931445615289
 40
0.1625753758423672
 40
0.2032193060694398
 40
0.2438631862427367
 40
0.2845069949126265
 40
0.3251507516847446
 40
0.3251507516847446
 40
0.3251507516847446
 40
0.3251507516847446
 10
78.02619279343628
 20
137.7841797550309
 30
0.0
 10
78.02462683500154
 20
137.7978132289243
 30
0.0
 10
78.02149490368336
 20
137.8250801914766
 30
0.0
 10
77.99740698359254
 20
137.8597545165876
 30
0.0
 10
77.96297466356928
 20
137.8829220989195
 30
0.0
 10
77.92202565560088
 20
137.8910585697567
 30
0.0
 10
77.8810766476324
 20
137.8829220989196
 30
0.0
 10
77.84664432760921
 20
137.8597545165876
 30
0.0
 10
77.82255640751833
 20
137.8250801914766
 30
0.0
 10
77.81942447620021
 20
137.7978132289243
 30
0.0
 10
77.81785851776544
 20
137.7841797550309
 30
0.0
 11
78.02619279343628
 21
137.7841797550309
 31
0.0
 11
78.01826324959649
 21
137.8240424913661
 31
0.0
 11
77.99568294514108
 21
137.8578367114045
 31
0.0
 11
77.961888572244
 21
137.8804169137247
 31
0.0
 11
77.92202565560086
 21
137.8883464216976
 31
0.0
 11
77.88216273895772
 21
137.8804169137247
 31
0.0
 11
77.84836836606064
 21
137.8578367114045
 31
0.0
 11
77.82578806160524
 21
137.8240424913661
 31
0.0
 11
77.81785851776544
 21
137.7841797550309
 31
0.0
  0
SPLINE
  5
2B0
330
1F
100
AcDbEntity
  8
0
  6
Continuous
 62
     7
100
AcDbSpline
210
0.0
220
0.0
230
1.0
 70
     8
 71
     3
 72
    15
 73
    11
 74
     9
 42
0.000000001
 43
0.0000000001
 44
0.00000001
 40
0.0
 40
0.0
 40
0.0
 40
0.0
 40
0.0406437567720902
 40
0.08128756544198
 40
0.1219314456152454
 40
0.1625753758423124
 40
0.2032193060693935
 40
0.243863186242647
 40
0.2845069949125368
 40
0.325150751684627
 40
0.325150751684627
 40
0.325150751684627
 40
0.325150751684627
 10
77.81785851776544
 20
136.9677908198662
 30
0.0
 10
77.8194244762002
 20
136.9541573459728
 30
0.0
 10
77.82255640751833
 20
136.9268903834204
 30
0.0
 10
77.84664432760923
 20
136.8922160583096
 30
0.0
 10
77.8810766476324
 20
136.8690484759776
 30
0.0
 10
77.92202565560088
 20
136.8609120051406
 30
0.0
 10
77.96297466356928
 20
136.8690484759775
 30
0.0
 10
77.99740698359254
 20
136.8922160583095
 30
0.0
 10
78.02149490368336
 20
136.9268903834205
 30
0.0
 10
78.02462683500154
 20
136.9541573459728
 30
0.0
 10
78.02619279343628
 20
136.9677908198662
 30
0.0
 11
77.81785851776544
 21
136.9677908198662
 31
0.0
 11
77.82578806160524
 21
136.927928083531
 31
0.0
 11
77.84836836606064
 21
136.8941338634926
 31
0.0
 11
77.88216273895772
 21
136.8715536611725
 31
0.0
 11
77.92202565560086
 21
136.8636241531996
 31
0.0
 11
77.96188857224402
 21
136.8715536611725
 31
0.0
 11
77.99568294514108
 21
136.8941338634926
 31
0.0
 11
78.01826324959649
 21
136.927928083531
 31
0.0
 11
78.02619279343628
 21
136.9677908198662
 31
0.0
  0
SPLINE
  5
2B1
330
1F
100
AcDbEntity
  8
0
  6
Continuous
 62
     7
100
AcDbSpline
210
0.0
220
0.0
230
1.0
 70
     8
 71
     3
 72
    15
 73
    11
 74
     9
 42
0.000000001
 43
0.0000000001
 44
0.00000001
 40
0.0
 40
0.0
 40
0.0
 40
0.0
 40
0.0406439247505524
 40
0.0812878638171934
 40
0.1219317646943942
 40
0.1625755979086978
 40
0.2032193702294764
 40
0.2438631241032238
 40
0.2845069120692037
 40
0.3251507658542248
 40
0.3251507658542248
 40
0.3251507658542248
 40
0.3251507658542248
 10
79.11999398332136
 20
136.1567197565973
 30
0.0
 10
79.1325867584152
 20
136.1512656493186
 30
0.0
 10
79.15777231696794
 20
136.1403574449447
 30
0.0
 10
79.19984340213074
 20
136.1439024914581
 30
0.0
 10
79.23711402114651
 20
136.1621569216809
 30
0.0
 10
79.26461887849545
 20
136.1935655255263
 30
0.0
 10
79.27802670377952
 20
136.2331034092336
 30
0.0
 10
79.27515780802321
 20
136.2745049041456
 30
0.0
 10
79.25715316462765
 20
136.3126934850335
 30
0.0
 10
79.2350968013025
 20
136.3290279373286
 30
0.0
 10
79.22406860645611
 20
136.337195165357
 30
0.0
 11
79.11999398332136
 21
136.1567197565973
 31
0.0
 11
79.158487774511
 21
136.143675328359
 31
0.0
 11
79.19904334739371
 21
136.1463540528898
 31
0.0
 11
79.23548642695032
 21
136.1643492970319
 31
0.0
 11
79.26226939661476
 21
136.1949204250777
 31
0.0
 11
79.27531392857867
 21
136.2334140163624
 31
0.0
 11
79.27263519832033
 21
136.2739694021199
 31
0.0
 11
79.25463987278187
 21
136.3104123168372
 31
0.0
 11
79.22406860645611
 21
136.337195165357
 31
0.0
  0
SPLINE
  5
2B2
330
1F
100
AcDbEntity
  8
0
  6
Continuous
 62
     7
100
AcDbSpline
210
0.0
220
0.0
230
1.0
 70
     8
 71
     3
 72
    15
 73
    11
 74
     9
 42
0.000000001
 43
0.0000000001
 44
0.00000001
 40
0.0
 40
0.0
 40
0.0
 40
0.0
 40
0.0406437567721794
 40
0.0812875654420219
 40
0.1219314456152794
 40
0.162575375842352
 40
0.2032193060694246
 40
0.2438631862427058
 40
0.284506994912572
 40
0.325150751684718
 40
0.325150751684718
 40
0.325150751684718
 40
0.325150751684718
 10
79.48453272313208
 20
136.4872352643107
 30
0.0
 10
79.48609868156683
 20
136.4736017904173
 30
0.0
 10
79.48923061288497
 20
136.4463348278649
 30
0.0
 10
79.51331853297587
 20
136.411660502754
 30
0.0
 10
79.54775085299906
 20
136.3884929204221
 30
0.0
 10
79.5886998609675
 20
136.3803564495849
 30
0.0
 10
79.62964886893596
 20
136.3884929204221
 30
0.0
 10
79.66408118895913
 20
136.411660502754
 30
0.0
 10
79.68816910905002
 20
136.4463348278649
 30
0.0
 10
79.69130104036816
 20
136.4736017904173
 30
0.0
 10
79.69286699880291
 20
136.4872352643107
 30
0.0
 11
79.48453272313208
 21
136.4872352643107
 31
0.0
 11
79.4924622669719
 21
136.4473725279754
 31
0.0
 11
79.5150425714273
 21
136.4135783079371
 31
0.0
 11
79.54883694432435
 21
136.3909981056169
 31
0.0
 11
79.5886998609675
 21
136.383068597644
 31
0.0
 11
79.62856277761064
 21
136.3909981056169
 31
0.0
 11
79.66235715050772
 21
136.4135783079371
 31
0.0
 11
79.68493745496312
 21
136.4473725279755
 31
0.0
 11
79.69286699880291
 21
136.4872352643107
 31
0.0
  0
SPLINE
  5
2B3
330
1F
100
AcDbEntity
  8
0
  6
Continuous
 62
     7
100
AcDbSpline
210
0.0
220
0.0
230
1.0
 70
     8
 71
     3
 72
    13
 73
     9
 74
     7
 42
0.000000001
 43
0.0000000001
 44
0.00000001
 40
0.0
 40
0.0
 40
0.0
 40
0.0
 40
0.0199816203769153
 40
0.0457117788514586
 40
0.08134206377048
 40
0.1214015505985777
 40
0.1614610827162267
 40
0.1970914958260833
 40
0.1970914958260833
 40
0.1970914958260833
 40
0.1970914958260833
 10
181.8518119758465
 20
272.1391700549448
 30
0.0
 10
181.8490962310037
 20
272.1453994772608
 30
0.0
 10
181.842883431133
 20
272.1596504625439
 30
0.0
 10
181.8185228650899
 20
272.1742933354291
 30
0.0
 10
181.7864064538724
 20
272.1846280839123
 30
0.0
 10
181.7476757794097
 20
272.1880152988622
 30
0.0
 10
181.7087689465437
 20
272.1850911033035
 30
0.0
 10
181.6851204495229
 20
272.1759644644505
 30
0.0
 10
181.6739881172216
 20
272.1716681703749
 30
0.0
 11
181.8518119758465
 21
272.1391700549448
 31
0.0
 11
181.8422360419788
 21
272.1567076396387
 31
0.0
 11
181.8213023631354
 21
272.1716683369583
 31
0.0
 11
181.7875081177353
 21
272.1829584254375
 31
0.0
 11
181.7476453091796
 21
272.1869231433137
 31
0.0
 11
181.7077824647569
 21
272.1829583352836
 31
0.0
 11
181.6739881172216
 21
272.1716681703749
 31
0.0
  0
SPLINE
  5
2B4
330
1F
100
AcDbEntity
  8
0
  6
Continuous
 62
     7
100
AcDbSpline
210
0.0
220
0.0
230
1.0
 70
     8
 71
     3
 72
    13
 73
     9
 74
     7
 42
0.000000001
 43
0.0000000001
 44
0.00000001
 40
0.0
 40
0.0
 40
0.0
 40
0.0
 40
0.0214507501062748
 40
0.0496531079077638
 40
0.0852833926086333
 40
0.1253428795030283
 40
0.1654024114629259
 40
0.2010328248952632
 40
0.2010328248952632
 40
0.2010328248952632
 40
0.2010328248952632
 10
181.8518119758465
 20
272.1391700549448
 30
0.0
 10
181.8498287850688
 20
272.1462673166234
 30
0.0
 10
181.8452381814935
 20
272.1626956896772
 30
0.0
 10
181.8191325590285
 20
272.1783927094882
 30
0.0
 10
181.7864643575461
 20
272.1889511332196
 30
0.0
 10
181.7476595184002
 20
272.1923474127663
 30
0.0
 10
181.7087724917227
 20
272.189420798093
 30
0.0
 10
181.6851215843687
 20
272.1802944528071
 30
0.0
 10
181.6739881172216
 20
272.1759982973941
 30
0.0
 11
181.8518119758465
 21
272.1391700549448
 31
0.0
 11
181.8438824958147
 21
272.1591013947273
 31
0.0
 11
181.8213023631354
 21
272.1759984639775
 31
0.0
 11
181.7875081177353
 21
272.1872885524567
 31
0.0
 11
181.7476453091796
 21
272.1912532703328
 31
0.0
 11
181.7077824647569
 21
272.1872884623027
 31
0.0
 11
181.6739881172216
 21
272.1759982973941
 31
0.0
  0
SPLINE
  5
2B5
330
1F
100
AcDbEntity
  8
0
  6
Continuous
 62
     7
100
AcDbSpline
210
0.0
220
0.0
230
1.0
 70
     8
 71
     3
 72
     9
 73
     5
 74
     3
 42
0.000000001
 43
0.0000000001
 44
0.00000001
 40
0.0
 40
0.0
 40
0.0
 40
0.0
 40
0.0199816239849305
 40
0.045711786426439
 40
0.045711786426439
 40
0.045711786426439
 40
0.045711786426439
 10
181.7436802485848
 20
271.4566630231735
 30
0.0
 10
181.7409749930629
 20
271.4629401304037
 30
0.0
 10
181.7347861873786
 20
271.4773002029337
 30
0.0
 10
181.7209555858068
 20
271.4848894770465
 30
0.0
 10
181.7131706358737
 20
271.4891613051869
 30
0.0
 11
181.7436802485848
 21
271.4566630231735
 31
0.0
 11
181.7341043147171
 21
271.4742006078674
 31
0.0
 11
181.7131706358737
 21
271.4891613051869
 31
0.0
  0
SPLINE
  5
2B6
330
1F
100
AcDbEntity
  8
0
  6
Continuous
 62
     7
100
AcDbSpline
210
0.0
220
0.0
230
1.0
 70
     8
 71
     3
 72
     9
 73
     5
 74
     3
 42
0.000000001
 43
0.0000000001
 44
0.00000001
 40
0.0
 40
0.0
 40
0.0
 40
0.0
 40
0.0214507538947565
 40
0.0496531152847721
 40
0.0496531152847721
 40
0.0496531152847721
 40
0.0496531152847721
 10
181.7436802485848
 20
271.4566630231735
 30
0.0
 10
181.7417027476836
 20
271.4638165338766
 30
0.0
 10
181.7371253120121
 20
271.480375108152
 30
0.0
 10
181.7218479807625
 20
271.4887401807617
 30
0.0
 10
181.7131706358737
 20
271.4934914322062
 30
0.0
 11
181.7436802485848
 21
271.4566630231735
 31
0.0
 11
181.735750768553
 21
271.4765943629559
 31
0.0
 11
181.7131706358737
 21
271.4934914322062
 31
0.0
  0
SPLINE
  5
2B7
330
1F
100
AcDbEntity
  8
0
  6
Continuous
 62
     7
100
AcDbSpline
210
0.0
220
0.0
230
1.0
 70
     8
 71
     3
 72
    11
 73
     7
 74
     5
 42
0.000000001
 43
0.0000000001
 44
0.00000001
 40
0.0
 40
0.0
 40
0.0
 40
0.0
 40
0.0485908804882015
 40
0.1024983168772634
 40
0.1510954430010745
 40
0.1867646267850356
 40
0.1867646267850356
 40
0.1867646267850356
 40
0.1867646267850356
 10
181.6905835435089
 20
271.6520999320588
 30
0.0
 10
181.7060054450365
 20
271.6466549076923
 30
0.0
 10
181.7385366340193
 20
271.6351691078376
 30
0.0
 10
181.7892376579193
 20
271.6369805116584
 30
0.0
 10
181.8363618507681
 20
271.6462990997119
 30
0.0
 10
181.8563737251319
 20
271.6667610697942
 30
0.0
 10
181.8648445701662
 20
271.6754224462717
 30
0.0
 11
181.6905835435089
 21
271.6520999320588
 31
0.0
 11
181.7372678788562
 21
271.6386223151848
 31
0.0
 11
181.7911753147642
 21
271.6386162519068
 31
0.0
 11
181.8378683357287
 21
271.6520863445793
 31
0.0
 11
181.8648445701662
 21
271.6754224462717
 31
0.0
  0
SPLINE
  5
2B8
330
1F
100
AcDbEntity
  8
0
  6
Continuous
 62
     7
100
AcDbSpline
210
0.0
220
0.0
230
1.0
 70
     8
 71
     3
 72
    15
 73
    11
 74
     9
 42
0.000000001
 43
0.0000000001
 44
0.00000001
 40
0.0
 40
0.0
 40
0.0
 40
0.0
 40
0.0120820709205487
 40
0.0261213474012357
 40
0.0569591371046445
 40
0.094496398944202
 40
0.135073980789666
 40
0.1741163409770209
 40
0.2074919885958285
 40
0.233101698137988
 40
0.233101698137988
 40
0.233101698137988
 40
0.233101698137988
 10
182.0554980421472
 20
272.0373250375191
 30
0.0
 10
182.054183425885
 20
272.0411751430139
 30
0.0
 10
182.0513412213249
 20
272.0494990347729
 30
0.0
 10
182.0378779810009
 20
272.0635554793103
 30
0.0
 10
182.0131541930965
 20
272.0764899990407
 30
0.0
 10
181.9775102973203
 20
272.0846777630256
 30
0.0
 10
181.9381326793653
 20
272.0860080064839
 30
0.0
 10
181.9010891914891
 20
272.0797092170364
 30
0.0
 10
181.8692446056444
 20
272.0682939491822
 30
0.0
 10
181.8563332520654
 20
272.0530995205597
 30
0.0
 10
181.8507275265696
 20
272.0465025402376
 30
0.0
 11
182.0554980421472
 21
272.0373250375191
 31
0.0
 11
182.0508413343279
 21
272.0484736555197
 31
0.0
 11
182.041569127242
 21
272.0590153572745
 31
0.0
 11
182.0147862872898
 21
272.0743009255811
 31
0.0
 11
181.9783433308511
 21
272.0832985267914
 31
0.0
 11
181.9377878594314
 21
272.0846378430312
 31
0.0
 11
181.8992941515876
 21
272.0781155482712
 31
0.0
 11
181.8687228938295
 21
272.0647240591552
 31
0.0
 11
181.8507275265696
 21
272.0465025402376
 31
0.0
  0
SPLINE
  5
2B9
330
1F
100
AcDbEntity
  8
0
  6
Continuous
 62
     7
100
AcDbSpline
210
0.0
220
0.0
230
1.0
 70
     8
 71
     3
 72
    15
 73
    11
 74
     9
 42
0.000000001
 43
0.0000000001
 44
0.00000001
 40
0.0
 40
0.0
 40
0.0
 40
0.0
 40
0.013865773463087
 40
0.0302191819410109
 40
0.0610569711570797
 40
0.0985942326654779
 40
0.1391718141641766
 40
0.1782141742337003
 40
0.2115898222883435
 40
0.2371995323097353
 40
0.2371995323097353
 40
0.2371995323097353
 40
0.2371995323097353
 10
182.0554980421472
 20
272.0373250375191
 30
0.0
 10
182.0547118590655
 20
272.0419687330839
 30
0.0
 10
182.0529984333766
 20
272.0520892365175
 30
0.0
 10
182.0384605236081
 20
272.0675697992848
 30
0.0
 10
182.0132003316596
 20
272.0808005492386
 30
0.0
 10
181.9774957016983
 20
272.0890140819548
 30
0.0
 10
181.9381365721586
 20
272.0903364814918
 30
0.0
 10
181.9010883280282
 20
272.0840397089958
 30
0.0
 10
181.8692447533373
 20
272.0726240146354
 30
0.0
 10
181.8563332969488
 20
272.0574296287016
 30
0.0
 10
181.8507275265696
 20
272.0508326672568
 30
0.0
 11
182.0554980421472
 21
272.0373250375191
 31
0.0
 11
182.0519853606219
 21
272.0507385002335
 31
0.0
 11
182.0415691272419
 21
272.0633454842937
 31
0.0
 11
182.0147862872898
 21
272.0786310526004
 31
0.0
 11
181.9783433308511
 21
272.0876286538107
 31
0.0
 11
181.9377878594314
 21
272.0889679700505
 31
0.0
 11
181.8992941515876
 21
272.0824456752906
 31
0.0
 11
181.8687228938295
 21
272.0690541861745
 31
0.0
 11
181.8507275265696
 21
272.0508326672568
 31
0.0
  0
SPLINE
  5
2BA
330
1F
100
AcDbEntity
  8
0
  6
Continuous
 62
     7
100
AcDbSpline
210
0.0
220
0.0
230
1.0
 70
     8
 71
     3
 72
    11
 73
     7
 74
     5
 42
0.000000001
 43
0.0000000001
 44
0.00000001
 40
0.0
 40
0.0
 40
0.0
 40
0.0
 40
0.0126611725906935
 40
0.0283425434021604
 40
0.0379319534711472
 40
0.050111813139882
 40
0.050111813139882
 40
0.050111813139882
 40
0.050111813139882
 10
181.8213020299688
 20
272.1023413410205
 30
0.0
 10
181.8250170265991
 20
272.1043626001559
 30
0.0
 10
181.8333331875681
 20
272.1088872833433
 30
0.0
 10
181.8429060724454
 20
272.11733132414
 30
0.0
 10
181.850197992387
 20
272.1277892897114
 30
0.0
 10
181.8512329349216
 20
272.1350869999475
 30
0.0
 10
181.8518119758465
 20
272.1391700549448
 30
0.0
 11
181.8213020299688
 21
272.1023413410205
 31
0.0
 11
181.8322148588675
 21
272.1087612645648
 31
0.0
 11
181.8438824040655
 21
272.1192385682383
 31
0.0
 11
181.8490719689421
 21
272.1273023925256
 31
0.0
 11
181.8518119758465
 21
272.1391700549448
 31
0.0
  0
SPLINE
  5
2BB
330
1F
100
AcDbEntity
  8
0
  6
Continuous
 62
     7
100
AcDbSpline
210
0.0
220
0.0
230
1.0
 70
     8
 71
     3
 72
    19
 73
    15
 74
    13
 42
0.000000001
 43
0.0000000001
 44
0.00000001
 40
0.0
 40
0.0
 40
0.0
 40
0.0
 40
0.0170797818999157
 40
0.030835085626145
 40
0.0504217586222261
 40
0.0652744063630766
 40
0.0908890664859222
 40
0.1159195276843646
 40
0.1391480202541417
 40
0.1596874787040823
 40
0.1738604256980089
 40
0.1830229722034664
 40
0.1905247506080504
 40
0.1975879672551514
 40
0.1975879672551514
 40
0.1975879672551514
 40
0.1975879672551514
 10
179.7423028711453
 20
271.5907077130686
 30
0.0
 10
179.7370898672654
 20
271.5930183089557
 30
0.0
 10
179.7276785366558
 20
271.5971897488535
 30
0.0
 10
179.7114224810792
 20
271.6016185729193
 30
0.0
 10
179.6955856812288
 20
271.6044546332748
 30
0.0
 10
179.6756248531845
 20
271.6061801359925
 30
0.0
 10
179.6537360536406
 20
271.6059489737682
 30
0.0
 10
179.6292655500873
 20
271.6026549247243
 30
0.0
 10
179.6070814069416
 20
271.5965301123707
 30
0.0
 10
179.5894454653064
 20
271.5883834384207
 30
0.0
 10
179.5775412943424
 20
271.5796922553283
 30
0.0
 10
179.5706477969717
 20
271.5719958111986
 30
0.0
 10
179.5665684851143
 20
271.5651309690911
 30
0.0
 10
179.5651611521774
 20
271.5604695111502
 30
0.0
 10
179.5644786793537
 20
271.5582089595803
 30
0.0
 11
179.7423028711453
 21
271.5907077130686
 31
0.0
 11
179.7265012701032
 21
271.5971906182871
 31
0.0
 11
179.7132673534379
 21
271.6009418589342
 31
0.0
 11
179.6939879723608
 21
271.6043977576516
 31
0.0
 11
179.6791920877251
 21
271.6056950413333
 31
0.0
 11
179.6535789590258
 21
271.6054149595403
 31
0.0
 11
179.6287828658669
 21
271.6019976892541
 31
0.0
 11
179.606437137445
 21
271.5956548772144
 31
0.0
 11
179.5879094075098
 21
271.586789633736
 31
0.0
 11
179.5765931379925
 21
271.5782564963397
 31
0.0
 11
179.5705366106103
 21
271.5713811276042
 31
0.0
 11
179.5667840252137
 21
271.564885375285
 31
0.0
 11
179.5644786793537
 21
271.5582089595803
 31
0.0
  0
SPLINE
  5
2BC
330
1F
100
AcDbEntity
  8
0
  6
Continuous
 62
     7
100
AcDbSpline
210
0.0
220
0.0
230
1.0
 70
     8
 71
     3
 72
    19
 73
    15
 74
    13
 42
0.000000001
 43
0.0000000001
 44
0.00000001
 40
0.0
 40
0.0
 40
0.0
 40
0.0
 40
0.012406558285935
 40
0.0308361653064083
 40
0.0504228384529108
 40
0.0652754862786829
 40
0.0908901464626149
 40
0.115920607650899
 40
0.1391491001596239
 40
0.1596885584701557
 40
0.1703048331956082
 40
0.1830197723112131
 40
0.1913956168017784
 40
0.2017634168313789
 40
0.2017634168313789
 40
0.2017634168313789
 40
0.2017634168313789
 10
179.7423028711453
 20
271.5950378400879
 30
0.0
 10
179.7385374160657
 20
271.5967564071801
 30
0.0
 10
179.7291784753183
 20
271.6010278498543
 30
0.0
 10
179.7129559686148
 20
271.6056776353222
 30
0.0
 10
179.6955861862468
 20
271.6087839764527
 30
0.0
 10
179.6756245933105
 20
271.6105105793662
 30
0.0
 10
179.6537364327502
 20
271.6102791793905
 30
0.0
 10
179.6292644542108
 20
271.6069844224149
 30
0.0
 10
179.6070849342533
 20
271.6008623735045
 30
0.0
 10
179.590518861778
 20
271.593208069084
 30
0.0
 10
179.5784942501151
 20
271.5847925399456
 30
0.0
 10
179.5710862163559
 20
271.5771483603051
 30
0.0
 10
179.5656411738028
 20
271.5679594076034
 30
0.0
 10
179.5648926892141
 20
271.5616815021153
 30
0.0
 10
179.5644786793537
 20
271.5582089595803
 30
0.0
 11
179.7423028711453
 21
271.5950378400879
 31
0.0
 11
179.7309155451611
 21
271.5999623995345
 31
0.0
 11
179.7132673534379
 21
271.6052719859533
 31
0.0
 11
179.6939879723573
 21
271.6087278846711
 31
0.0
 11
179.6791920877251
 21
271.6100251683524
 31
0.0
 11
179.6535789590252
 21
271.6097450865594
 31
0.0
 11
179.6287828658669
 21
271.6063278162733
 31
0.0
 11
179.6064371374454
 21
271.5999850042337
 31
0.0
 11
179.5879094075098
 21
271.5911197607551
 31
0.0
 11
179.5792648996214
 21
271.5849571510927
 31
0.0
 11
179.5705366106103
 21
271.5757112546235
 31
0.0
 11
179.566484327048
 21
271.5683809238179
 31
0.0
 11
179.5644786793537
 21
271.5582089595803
 31
0.0
  0
SPLINE
  5
2BD
330
1F
100
AcDbEntity
  8
0
  6
Continuous
 62
     7
100
AcDbSpline
210
0.0
220
0.0
230
1.0
 70
     8
 71
     3
 72
     9
 73
     5
 74
     3
 42
0.000000001
 43
0.0000000001
 44
0.00000001
 40
0.0
 40
0.0
 40
0.0
 40
0.0
 40
0.0214508847146679
 40
0.0496534500283135
 40
0.0496534500283135
 40
0.0496534500283135
 40
0.0496534500283135
 10
179.6892060731619
 20
271.7904750489831
 30
0.0
 10
179.6911835920793
 20
271.7833214969008
 30
0.0
 10
179.6957610723968
 20
271.7667628161956
 30
0.0
 10
179.7110385085829
 20
271.7583976921772
 30
0.0
 10
179.7197159173181
 20
271.7536464092094
 30
0.0
 11
179.6892060731619
 21
271.7904750489831
 31
0.0
 11
179.697135615926
 21
271.7705435933655
 31
0.0
 11
179.7197159173181
 21
271.7536464092094
 31
0.0
  0
SPLINE
  5
2BE
330
1F
100
AcDbEntity
  8
0
  6
Continuous
 62
     7
100
AcDbSpline
210
0.0
220
0.0
230
1.0
 70
     8
 71
     3
 72
     9
 73
     5
 74
     3
 42
0.000000001
 43
0.0000000001
 44
0.00000001
 40
0.0
 40
0.0
 40
0.0
 40
0.0
 40
0.0764414097622333
 40
0.1267792616625185
 40
0.1267792616625185
 40
0.1267792616625185
 40
0.1267792616625185
 10
179.8006982148255
 20
271.8380991869257
 30
0.0
 10
179.7734908748901
 20
271.8380208358441
 30
0.0
 10
179.7283670874351
 20
271.8378908717362
 30
0.0
 10
179.7003358882308
 20
271.8039509428786
 30
0.0
 10
179.6892060731619
 20
271.7904750489831
 30
0.0
 11
179.8006982148255
 21
271.8380991869257
 31
0.0
 11
179.7252901635917
 21
271.825572599505
 31
0.0
 11
179.6892060731619
 21
271.7904750489831
 31
0.0
  0
SPLINE
  5
2BF
330
1F
100
AcDbEntity
  8
0
  6
Continuous
 62
     7
100
AcDbSpline
210
0.0
220
0.0
230
1.0
 70
     8
 71
     3
 72
     9
 73
     5
 74
     3
 42
0.000000001
 43
0.0000000001
 44
0.00000001
 40
0.0
 40
0.0
 40
0.0
 40
0.0
 40
0.0795444048776981
 40
0.1300508248096286
 40
0.1300508248096286
 40
0.1300508248096286
 40
0.1300508248096286
 10
179.8006982148256
 20
271.8424293139448
 30
0.0
 10
179.7719290932522
 20
271.8425109419937
 30
0.0
 10
179.7248931341217
 20
271.8426443824649
 30
0.0
 10
179.6991886413947
 20
271.8050681326416
 30
0.0
 10
179.6892060731619
 20
271.7904750489831
 30
0.0
 11
179.8006982148256
 21
271.8424293139448
 31
0.0
 11
179.7223710543803
 21
271.8285668172755
 31
0.0
 11
179.6892060731619
 21
271.7904750489831
 31
0.0
  0
SPLINE
  5
2C0
330
1F
100
AcDbEntity
  8
0
  6
Continuous
 62
     7
100
AcDbSpline
210
0.0
220
0.0
230
1.0
 70
     8
 71
     3
 72
     9
 73
     5
 74
     3
 42
0.000000001
 43
0.0000000001
 44
0.00000001
 40
0.0
 40
0.0
 40
0.0
 40
0.0
 40
0.0214507538949255
 40
0.0496531152848842
 40
0.0496531152848842
 40
0.0496531152848842
 40
0.0496531152848842
 10
179.5644786793537
 20
271.5582089595803
 30
0.0
 10
179.566456180255
 20
271.5510554488772
 30
0.0
 10
179.5710336159264
 20
271.5344968746018
 30
0.0
 10
179.5863109471761
 20
271.526131801992
 30
0.0
 10
179.5949882920648
 20
271.5213805505475
 30
0.0
 11
179.5644786793537
 21
271.5582089595803
 31
0.0
 11
179.5724081593855
 21
271.5382776197978
 31
0.0
 11
179.5949882920648
 21
271.5213805505475
 31
0.0
  0
SPLINE
  5
2C1
330
1F
100
AcDbEntity
  8
0
  6
Continuous
 62
     7
100
AcDbSpline
210
0.0
220
0.0
230
1.0
 70
     8
 71
     3
 72
     9
 73
     5
 74
     3
 42
0.000000001
 43
0.0000000001
 44
0.00000001
 40
0.0
 40
0.0
 40
0.0
 40
0.0
 40
0.021450753894767
 40
0.0496531152846008
 40
0.0496531152846008
 40
0.0496531152846008
 40
0.0496531152846008
 10
179.439751567228
 20
271.3259433574822
 30
0.0
 10
179.4417290681293
 20
271.3187898467791
 30
0.0
 10
179.4463065038007
 20
271.3022312725038
 30
0.0
 10
179.4615838350504
 20
271.2938661998942
 30
0.0
 10
179.4702611799391
 20
271.2891149484497
 30
0.0
 11
179.439751567228
 21
271.3259433574822
 31
0.0
 11
179.4476810472598
 21
271.3060120176998
 31
0.0
 11
179.4702611799391
 21
271.2891149484497
 31
0.0
  0
SPLINE
  5
2C2
330
1F
100
AcDbEntity
  8
0
  6
Continuous
 62
     7
100
AcDbSpline
210
0.0
220
0.0
230
1.0
 70
     8
 71
     3
 72
    20
 73
    16
 74
    14
 42
0.000000001
 43
0.0000000001
 44
0.00000001
 40
0.0
 40
0.0
 40
0.0
 40
0.0
 40
0.0170797819068083
 40
0.0308350856259961
 40
0.0451321261027018
 40
0.0652747919319212
 40
0.0875063249074478
 40
0.1047726176186469
 40
0.1159364705696711
 40
0.144210984496583
 40
0.1597002783831777
 40
0.1721326614573599
 40
0.1830363116025155
 40
0.189620789561792
 40
0.1976034169029682
 40
0.1976034169029682
 40
0.1976034169029682
 40
0.1976034169029682
 10
179.6175757590195
 20
271.3584421109707
 30
0.0
 10
179.6123630008243
 20
271.3607529485629
 30
0.0
 10
179.6029521137437
 20
271.3649248247535
 30
0.0
 10
179.5883985772845
 20
271.3688862107119
 30
0.0
 10
179.5726213043477
 20
271.3719560029818
 30
0.0
 10
179.5537855571257
 20
271.3738217499125
 30
0.0
 10
179.5338703341628
 20
271.3737699907236
 30
0.0
 10
179.5170390871357
 20
271.3721175239671
 30
0.0
 10
179.498418500704
 20
271.3688645241895
 30
0.0
 10
179.4807025090361
 20
271.3637315189784
 30
0.0
 10
179.4638659228459
 20
271.3553760398056
 30
0.0
 10
179.4532830154338
 20
271.3478072650231
 30
0.0
 10
179.4464387789417
 20
271.3404516227373
 30
0.0
 10
179.4419563656968
 20
271.3331622843471
 30
0.0
 10
179.4405320640039
 20
271.3284988664455
 30
0.0
 10
179.439751567228
 20
271.3259433574822
 30
0.0
 11
179.6175757590195
 21
271.3584421109707
 31
0.0
 11
179.6017741579727
 21
271.3649250161907
 31
0.0
 11
179.5885402413121
 21
271.3686762568362
 31
0.0
 11
179.5745052475345
 21
271.371401017865
 31
0.0
 11
179.5544649755993
 21
271.3734294392352
 31
0.0
 11
179.5322335265374
 21
271.3733683877634
 31
0.0
 11
179.5150520641322
 21
271.3716589412679
 31
0.0
 11
179.5040557537411
 21
271.3697320871561
 31
0.0
 11
179.4769977215156
 21
271.3615277595013
 31
0.0
 11
179.4631822953841
 21
271.3545240316381
 31
0.0
 11
179.4531566321858
 21
271.3471721475968
 31
0.0
 11
179.4458094984846
 21
271.3391155255063
 31
0.0
 11
179.4424351790345
 21
271.3334613827232
 31
0.0
 11
179.439751567228
 21
271.3259433574822
 31
0.0
  0
SPLINE
  5
2C3
330
1F
100
AcDbEntity
  8
0
  6
Continuous
 62
     7
100
AcDbSpline
210
0.0
220
0.0
230
1.0
 70
     8
 71
     3
 72
    19
 73
    15
 74
    13
 42
0.000000001
 43
0.0000000001
 44
0.00000001
 40
0.0
 40
0.0
 40
0.0
 40
0.0
 40
0.0148694166077656
 40
0.0308367343289563
 40
0.0477127178003785
 40
0.0652770718507632
 40
0.0851349434551959
 40
0.1159164887177463
 40
0.1341355085914559
 40
0.1596726143417203
 40
0.1702888890217726
 40
0.1830038279197795
 40
0.1927009260828246
 40
0.2017549881198918
 40
0.2017549881198918
 40
0.2017549881198918
 40
0.2017549881198918
 10
179.6175757590195
 20
271.3627722379898
 30
0.0
 10
179.613049243276
 20
271.3648059971064
 30
0.0
 10
179.6036619877978
 20
271.3690236721554
 30
0.0
 10
179.5882925303949
 20
271.3733094905365
 30
0.0
 10
179.5717627413582
 20
271.3763991835335
 30
0.0
 10
179.5537129151941
 20
271.3780769600921
 30
0.0
 10
179.5309548823719
 20
271.3781448816239
 30
0.0
 10
179.5080431477605
 20
271.3754276090426
 30
0.0
 10
179.4839841886613
 20
271.3691339295823
 30
0.0
 10
179.4671620081463
 20
271.3618995641129
 30
0.0
 10
179.4537673882709
 20
271.352525407904
 30
0.0
 10
179.446048760139
 20
271.3445732000722
 30
0.0
 10
179.4407279125759
 20
271.335248155662
 30
0.0
 10
179.4400694866931
 20
271.3289732287611
 30
0.0
 10
179.439751567228
 20
271.3259433574822
 30
0.0
 11
179.6175757590195
 21
271.3627722379898
 31
0.0
 11
179.6038692591497
 21
271.368536885037
 31
0.0
 11
179.5885402413121
 21
271.3730063838553
 31
0.0
 11
179.5719512864782
 21
271.376105641806
 31
0.0
 11
179.5544649755993
 21
271.3777595662544
 31
0.0
 11
179.5346071928735
 21
271.3778189517618
 31
0.0
 11
179.5040557537411
 21
271.3740622141752
 31
0.0
 11
179.4864478577351
 21
271.3693830398672
 31
0.0
 11
179.4631822953841
 21
271.3588541586573
 31
0.0
 11
179.4545377874937
 21
271.3526915489931
 31
0.0
 11
179.4458094984846
 21
271.3434456525255
 31
0.0
 11
179.4412910811944
 21
271.3348655832073
 31
0.0
 11
179.439751567228
 21
271.3259433574822
 31
0.0
  0
SPLINE
  5
2C4
330
1F
100
AcDbEntity
  8
0
  6
Continuous
 62
     7
100
AcDbSpline
210
0.0
220
0.0
230
1.0
 70
     8
 71
     3
 72
    11
 73
     7
 74
     5
 42
0.000000001
 43
0.0000000001
 44
0.00000001
 40
0.0
 40
0.0
 40
0.0
 40
0.0
 40
0.0375373679175113
 40
0.0683753030380944
 40
0.0847289201111544
 40
0.0985948379767538
 40
0.0985948379767538
 40
0.0985948379767538
 40
0.0985948379767538
 10
181.5709707696942
 20
272.1907110456946
 30
0.0
 10
181.5833363683185
 20
272.1930408057016
 30
0.0
 10
181.6058606283288
 20
272.1972845303125
 30
0.0
 10
181.631084213887
 20
272.2108008553255
 30
0.0
 10
181.6456268638585
 20
272.2262460948818
 30
0.0
 10
181.6473399231913
 20
272.2363698779323
 30
0.0
 10
181.6481259360597
 20
272.2410150720633
 30
0.0
 11
181.5709707696942
 21
272.1907110456946
 31
0.0
 11
181.6074138075294
 21
272.1997087293246
 31
0.0
 11
181.6341967857614
 21
272.2149943582036
 31
0.0
 11
181.6446131938434
 21
272.2276014796406
 31
0.0
 11
181.6481259360597
 21
272.2410150720633
 31
0.0
  0
SPLINE
  5
2C5
330
1F
100
AcDbEntity
  8
0
  6
Continuous
 62
     7
100
AcDbSpline
210
0.0
220
0.0
230
1.0
 70
     8
 71
     3
 72
    14
 73
    10
 74
     8
 42
0.000000001
 43
0.0000000001
 44
0.00000001
 40
0.0
 40
0.0
 40
0.0
 40
0.0
 40
0.0048220273400267
 40
0.0098562261954747
 40
0.0262237788266599
 40
0.0458800548016313
 40
0.0690524429256791
 40
0.1080947300436882
 40
0.1486723353665584
 40
0.1486723353665584
 40
0.1486723353665584
 40
0.1486723353665584
 10
181.6481259360597
 20
272.2410150720633
 30
0.0
 10
181.6476605848048
 20
272.2425545466577
 30
0.0
 10
181.6467093944489
 20
272.2457012293752
 30
0.0
 10
181.6431166287956
 20
272.2537077646378
 30
0.0
 10
181.6337953703207
 20
272.2642081047644
 30
0.0
 10
181.6168837390326
 20
272.2746775446602
 30
0.0
 10
181.5911688553993
 20
272.2841461591805
 30
0.0
 10
181.5570126108701
 20
272.2899717200217
 30
0.0
 10
181.5304729733494
 20
272.2879929724984
 30
0.0
 10
181.5169472713907
 20
272.2869845187537
 30
0.0
 11
181.6481259360597
 21
272.2410150720633
 31
0.0
 11
181.6466343374275
 21
272.2456006082987
 31
0.0
 11
181.6445627428016
 21
272.2501888208161
 31
0.0
 11
181.634105744633
 21
272.2627804044119
 31
0.0
 11
181.6176320101076
 21
272.2735035205208
 31
0.0
 11
181.5959964037676
 21
272.2818017190115
 31
0.0
 11
181.5575027549269
 21
272.288323926714
 31
0.0
 11
181.5169472713907
 21
272.2869845187537
 31
0.0
  0
SPLINE
  5
2C6
330
1F
100
AcDbEntity
  8
0
  6
Continuous
 62
     7
100
AcDbSpline
210
0.0
220
0.0
230
1.0
 70
     8
 71
     3
 72
    13
 73
     9
 74
     7
 42
0.000000001
 43
0.0000000001
 44
0.00000001
 40
0.0
 40
0.0
 40
0.0
 40
0.0
 40
0.0068393687584454
 40
0.0140747496573277
 40
0.039684311793786
 40
0.07305982000853
 40
0.1121021071884807
 40
0.1526797125495457
 40
0.1526797125495457
 40
0.1526797125495457
 40
0.1526797125495457
 10
181.6481259360597
 20
272.2410150720633
 30
0.0
 10
181.647947712061
 20
272.2433005299169
 30
0.0
 10
181.6475809344871
 20
272.2480037756959
 30
0.0
 10
181.6423397501692
 20
272.2603720119363
 30
0.0
 10
181.6251302329548
 20
272.2757562378227
 30
0.0
 10
181.5945331700019
 20
272.2878476263891
 30
0.0
 10
181.5570198513813
 20
272.2943158766739
 30
0.0
 10
181.5304754179712
 20
272.2923278356708
 30
0.0
 10
181.5169472713907
 20
272.291314645773
 30
0.0
 11
181.6481259360597
 21
272.2410150720633
 31
0.0
 11
181.6472389279473
 21
272.2477966871801
 31
0.0
 11
181.6445627428016
 21
272.2545189478353
 31
0.0
 11
181.626567540381
 21
272.2727404260547
 31
0.0
 11
181.5959964037676
 21
272.2861318460308
 31
0.0
 11
181.5575027549269
 21
272.2926540537332
 31
0.0
 11
181.5169472713907
 21
272.291314645773
 31
0.0
  0
SPLINE
  5
2C7
330
1F
100
AcDbEntity
  8
0
  6
Continuous
 62
     7
100
AcDbSpline
210
0.0
220
0.0
230
1.0
 70
     8
 71
     3
 72
     9
 73
     5
 74
     3
 42
0.000000001
 43
0.0000000001
 44
0.00000001
 40
0.0
 40
0.0
 40
0.0
 40
0.0
 40
0.0557877391005922
 40
0.0934198786101381
 40
0.0934198786101381
 40
0.0934198786101381
 40
0.0934198786101381
 10
180.8201504650968
 20
272.1934391846594
 30
0.0
 10
180.8006953882635
 20
272.1903530442165
 30
0.0
 10
180.7681167173222
 20
272.1851851022632
 30
0.0
 10
180.7502091368648
 20
272.1582983994113
 30
0.0
 10
180.7429954682839
 20
272.1474676780744
 30
0.0
 11
180.8201504650968
 21
272.1934391846594
 31
0.0
 11
180.7670171628852
 21
272.1764355279033
 31
0.0
 11
180.7429954682839
 21
272.1474676780744
 31
0.0
  0
SPLINE
  5
2C8
330
1F
100
AcDbEntity
  8
0
  6
Continuous
 62
     7
100
AcDbSpline
210
0.0
220
0.0
230
1.0
 70
     8
 71
     3
 72
     9
 73
     5
 74
     3
 42
0.000000001
 43
0.0000000001
 44
0.00000001
 40
0.0
 40
0.0
 40
0.0
 40
0.0
 40
0.0586692232527492
 40
0.0969756306282937
 40
0.0969756306282937
 40
0.0969756306282937
 40
0.0969756306282937
 10
180.8201504650969
 20
272.1977693116785
 30
0.0
 10
180.7993160483178
 20
272.194584906735
 30
0.0
 10
180.7648783992114
 20
272.1893213188827
 30
0.0
 10
180.7491918259732
 20
272.159318941658
 30
0.0
 10
180.7429954682839
 20
272.1474676780744
 30
0.0
 11
180.8201504650969
 21
272.1977693116785
 31
0.0
 11
180.7645103415234
 21
272.1791613891343
 31
0.0
 11
180.7429954682839
 21
272.1474676780744
 31
0.0
  0
SPLINE
  5
2C9
330
1F
100
AcDbEntity
  8
0
  6
Continuous
 62
     7
100
AcDbSpline
210
0.0
220
0.0
230
1.0
 70
     8
 71
     3
 72
    13
 73
     9
 74
     7
 42
0.000000001
 43
0.0000000001
 44
0.00000001
 40
0.0
 40
0.0
 40
0.0
 40
0.0
 40
0.0068393687584454
 40
0.0140747496573277
 40
0.0396843117937661
 40
0.0730598200085361
 40
0.1121021071885148
 40
0.1526797125495514
 40
0.1526797125495514
 40
0.1526797125495514
 40
0.1526797125495514
 10
181.618953149725
 20
271.2243994116676
 30
0.0
 10
181.6187749257262
 20
271.2266848695213
 30
0.0
 10
181.6184081481525
 20
271.2313881153001
 30
0.0
 10
181.6131669638345
 20
271.2437563515408
 30
0.0
 10
181.59595744662
 20
271.2591405774268
 30
0.0
 10
181.5653603836673
 20
271.2712319659935
 30
0.0
 10
181.5278470650466
 20
271.277700216278
 30
0.0
 10
181.5013026316366
 20
271.2757121752753
 30
0.0
 10
181.487774485056
 20
271.2746989853773
 30
0.0
 11
181.618953149725
 21
271.2243994116676
 31
0.0
 11
181.6180661416126
 21
271.2311810267844
 31
0.0
 11
181.6153899564669
 21
271.2379032874396
 31
0.0
 11
181.5973947540463
 21
271.256124765659
 31
0.0
 11
181.5668236174329
 21
271.2695161856351
 31
0.0
 11
181.5283299685922
 21
271.2760383933375
 31
0.0
 11
181.487774485056
 21
271.2746989853773
 31
0.0
  0
SPLINE
  5
2CA
330
1F
100
AcDbEntity
  8
0
  6
Continuous
 62
     7
100
AcDbSpline
210
0.0
220
0.0
230
1.0
 70
     8
 71
     3
 72
    19
 73
    15
 74
    13
 42
0.000000001
 43
0.0000000001
 44
0.00000001
 40
0.0
 40
0.0
 40
0.0
 40
0.0
 40
0.0148694165932323
 40
0.0308367343277483
 40
0.0504234074585372
 40
0.0652760552600981
 40
0.0908907153974283
 40
0.1159211765544497
 40
0.1391496690417547
 40
0.1596891273332272
 40
0.1703054020512803
 40
0.1830203411510528
 40
0.1913961244083811
 40
0.2017639850995851
 40
0.2017639850995851
 40
0.2017639850995851
 40
0.2017639850995851
 10
181.5658560567933
 20
271.4198341426659
 30
0.0
 10
181.5703826851309
 20
271.4178004648548
 30
0.0
 10
181.5797701741319
 20
271.4135829584532
 30
0.0
 10
181.596010818592
 20
271.4090522113611
 30
0.0
 10
181.6125729747173
 20
271.4060874753588
 30
0.0
 10
181.6325342333493
 20
271.4043616348479
 30
0.0
 10
181.654422527554
 20
271.4045927298162
 30
0.0
 10
181.6788944658282
 20
271.4078875785436
 30
0.0
 10
181.7010739955415
 20
271.4140096051195
 30
0.0
 10
181.7176400659372
 20
271.4216639142847
 30
0.0
 10
181.7296646778933
 20
271.4300794426373
 30
0.0
 10
181.7370726971819
 20
271.4377236081497
 30
0.0
 10
181.7425177454334
 20
271.4469125545893
 30
0.0
 10
181.7432662340237
 20
271.4531904601765
 30
0.0
 10
181.7436802485848
 20
271.4566630231735
 30
0.0
 11
181.5658560567933
 21
271.4198341426659
 31
0.0
 11
181.5795625566597
 21
271.4140694956199
 31
0.0
 11
181.5948915745007
 21
271.4095999968004
 31
0.0
 11
181.6141709555729
 21
271.4061440980836
 31
0.0
 11
181.6289668402135
 21
271.4048468144014
 31
0.0
 11
181.6545799689127
 21
271.4051268961942
 31
0.0
 11
181.6793760620717
 21
271.4085441664806
 31
0.0
 11
181.7017217904948
 21
271.4148869785204
 31
0.0
 11
181.7202495204288
 21
271.4237522219985
 31
0.0
 11
181.7288940283183
 21
271.4299148316617
 31
0.0
 11
181.7376223173283
 21
271.4391607281303
 31
0.0
 11
181.741674578059
 21
271.4464910015967
 31
0.0
 11
181.7436802485848
 21
271.4566630231735
 31
0.0
  0
SPLINE
  5
2CB
330
1F
100
AcDbEntity
  8
0
  6
Continuous
 62
     7
100
AcDbSpline
210
0.0
220
0.0
230
1.0
 70
     8
 71
     3
 72
     9
 73
     5
 74
     3
 42
0.000000001
 43
0.0000000001
 44
0.00000001
 40
0.0
 40
0.0
 40
0.0
 40
0.0
 40
0.0214508754748233
 40
0.0496534286403978
 40
0.0496534286403978
 40
0.0496534286403978
 40
0.0496534286403978
 10
180.7429954682839
 20
272.1474676780744
 30
0.0
 10
180.7449729863494
 20
272.1403141290733
 30
0.0
 10
180.7495504646953
 20
272.1237554555008
 30
0.0
 10
180.7648278943006
 20
272.1153903350855
 30
0.0
 10
180.7735052992981
 20
272.1106390541643
 30
0.0
 11
180.7429954682839
 21
272.1474676780744
 31
0.0
 11
180.7509250076324
 21
272.1275362310421
 31
0.0
 11
180.7735052992981
 21
272.1106390541643
 31
0.0
  0
SPLINE
  5
2CC
330
1F
100
AcDbEntity
  8
0
  6
Continuous
 62
     7
100
AcDbSpline
210
0.0
220
0.0
230
1.0
 70
     8
 71
     3
 72
    11
 73
     7
 74
     5
 42
0.000000001
 43
0.0000000001
 44
0.00000001
 40
0.0
 40
0.0
 40
0.0
 40
0.0
 40
0.0552077900115084
 40
0.1154650287101292
 40
0.1632126866370295
 40
0.196179716878401
 40
0.196179716878401
 40
0.196179716878401
 40
0.196179716878401
 10
180.4562882995928
 20
272.1176024733275
 30
0.0
 10
180.4386245993231
 20
272.123549740103
 30
0.0
 10
180.4016816289459
 20
272.1359882130689
 30
0.0
 10
180.3473265462268
 20
272.1313753283615
 30
0.0
 10
180.2987304308331
 20
272.1184623774006
 30
0.0
 10
180.2843407041379
 20
272.0947775266512
 30
0.0
 10
180.2784633832138
 20
272.085103704009
 30
0.0
 11
180.4562882995928
 21
272.1176024733275
 31
0.0
 11
180.402951862856
 21
272.1318546254525
 31
0.0
 11
180.3427674744788
 21
272.1288925137652
 31
0.0
 11
180.2983365107689
 21
272.1114073947711
 31
0.0
 11
180.2784633832138
 21
272.085103704009
 31
0.0
  0
SPLINE
  5
2CD
330
1F
100
AcDbEntity
  8
0
  6
Continuous
 62
     7
100
AcDbSpline
210
0.0
220
0.0
230
1.0
 70
     8
 71
     3
 72
    11
 73
     7
 74
     5
 42
0.000000001
 43
0.0000000001
 44
0.00000001
 40
0.0
 40
0.0
 40
0.0
 40
0.0
 40
0.0552077908260519
 40
0.1154650292895822
 40
0.1659940834373943
 40
0.1998398093639701
 40
0.1998398093639701
 40
0.1998398093639701
 40
0.1998398093639701
 10
180.4562882995929
 20
272.1219326003466
 30
0.0
 10
180.4385984144708
 20
272.1278851944994
 30
0.0
 10
180.4016006801932
 20
272.1403348106112
 30
0.0
 10
180.3467345528533
 20
272.1355588316374
 30
0.0
 10
180.2956123337677
 20
272.1223230973542
 30
0.0
 10
180.2833730070084
 20
272.0957593659522
 30
0.0
 10
180.2784633832138
 20
272.085103704009
 30
0.0
 11
180.4562882995929
 21
272.1219326003466
 31
0.0
 11
180.402951862856
 21
272.1361847524716
 31
0.0
 11
180.342767474479
 21
272.1332226407844
 31
0.0
 11
180.2960217175237
 21
272.1140387754737
 31
0.0
 11
180.2784633832138
 21
272.085103704009
 31
0.0
  0
SPLINE
  5
2CE
330
1F
100
AcDbEntity
  8
0
  6
Continuous
 62
     7
100
AcDbSpline
210
0.0
220
0.0
230
1.0
 70
     8
 71
     3
 72
     9
 73
     5
 74
     3
 42
0.000000001
 43
0.0000000001
 44
0.00000001
 40
0.0
 40
0.0
 40
0.0
 40
0.0
 40
0.019981623984858
 40
0.0457117864263863
 40
0.0457117864263863
 40
0.0457117864263863
 40
0.0457117864263863
 10
180.8146178401929
 20
271.3319359110478
 30
0.0
 10
180.8119125846709
 20
271.3382130182778
 30
0.0
 10
180.8057237789866
 20
271.352573090808
 30
0.0
 10
180.7918931774148
 20
271.3601623649208
 30
0.0
 10
180.7841082274818
 20
271.3644341930612
 30
0.0
 11
180.8146178401929
 21
271.3319359110478
 31
0.0
 11
180.8050419063252
 21
271.3494734957416
 31
0.0
 11
180.7841082274818
 21
271.3644341930612
 31
0.0
  0
SPLINE
  5
2CF
330
1F
100
AcDbEntity
  8
0
  6
Continuous
 62
     7
100
AcDbSpline
210
0.0
220
0.0
230
1.0
 70
     8
 71
     3
 72
    19
 73
    15
 74
    13
 42
0.000000001
 43
0.0000000001
 44
0.00000001
 40
0.0
 40
0.0
 40
0.0
 40
0.0
 40
0.017079782010168
 40
0.0308350856346617
 40
0.0477110691152816
 40
0.0652754231348155
 40
0.0851332947138052
 40
0.1159148399543272
 40
0.1391433324234146
 40
0.1596827906996897
 40
0.1702990654101582
 40
0.1830140044979517
 40
0.1913897877490708
 40
0.2017576484317259
 40
0.2017576484317259
 40
0.2017576484317259
 40
0.2017576484317259
 10
180.6367936484014
 20
271.2951070305402
 30
0.0
 10
180.6420065240149
 20
271.2927963302536
 30
0.0
 10
180.6514176228093
 20
271.2886247013404
 30
0.0
 10
180.6668013308641
 20
271.284435261307
 30
0.0
 10
180.6826070398399
 20
271.2814797477061
 30
0.0
 10
180.7006559845432
 20
271.2798024736337
 30
0.0
 10
180.7234168025907
 20
271.2797339928712
 30
0.0
 10
180.7479810166439
 20
271.2826512305426
 30
0.0
 10
180.7720109542858
 20
271.2892819638144
 30
0.0
 10
180.7885777339139
 20
271.2969368660735
 30
0.0
 10
180.8006022513008
 20
271.3053523153212
 30
0.0
 10
180.8080102919953
 20
271.3129964988027
 30
0.0
 10
180.8134553362571
 20
271.3221854417275
 30
0.0
 10
180.8142038253256
 20
271.3284633477972
 30
0.0
 10
180.8146178401929
 20
271.3319359110478
 30
0.0
 11
180.6367936484014
 21
271.2951070305402
 31
0.0
 11
180.6525952494454
 21
271.2886241253211
 31
0.0
 11
180.6658291661088
 21
271.2848728846747
 31
0.0
 11
180.6824181209448
 21
271.2817736267237
 31
0.0
 11
180.6999044318216
 21
271.2801197022756
 31
0.0
 11
180.7197622145472
 21
271.280060316768
 31
0.0
 11
180.7503136536798
 21
271.2838170543548
 31
0.0
 11
180.7726593821034
 21
271.2901598663949
 31
0.0
 11
180.7911871120368
 21
271.2990251098727
 31
0.0
 11
180.7998316199262
 21
271.3051877195359
 31
0.0
 11
180.8085599089363
 21
271.3144336160045
 31
0.0
 11
180.8126121696671
 21
271.3217638894708
 31
0.0
 11
180.8146178401929
 21
271.3319359110478
 31
0.0
  0
SPLINE
  5
2D0
330
1F
100
AcDbEntity
  8
0
  6
Continuous
 62
     7
100
AcDbSpline
210
0.0
220
0.0
230
1.0
 70
     8
 71
     3
 72
    14
 73
    10
 74
     8
 42
0.000000001
 43
0.0000000001
 44
0.00000001
 40
0.0
 40
0.0
 40
0.0
 40
0.0
 40
0.0048220273400632
 40
0.0098562261954827
 40
0.0262237788266679
 40
0.0458800548016704
 40
0.0690524429256979
 40
0.1080947300437349
 40
0.1486723353665768
 40
0.1486723353665768
 40
0.1486723353665768
 40
0.1486723353665768
 10
181.618953149725
 20
271.2243994116676
 30
0.0
 10
181.6184877984701
 20
271.2259388862619
 30
0.0
 10
181.6175366081142
 20
271.2290855689795
 30
0.0
 10
181.6139438424608
 20
271.237092104242
 30
0.0
 10
181.6046225839862
 20
271.2475924443689
 30
0.0
 10
181.5877109526978
 20
271.2580618842644
 30
0.0
 10
181.5619960690647
 20
271.2675304987848
 30
0.0
 10
181.5278398245354
 20
271.2733560596259
 30
0.0
 10
181.5013001870146
 20
271.2713773121026
 30
0.0
 10
181.487774485056
 20
271.270368858358
 30
0.0
 11
181.618953149725
 21
271.2243994116676
 31
0.0
 11
181.6174615510928
 21
271.228984947903
 31
0.0
 11
181.6153899564669
 21
271.2335731604204
 31
0.0
 11
181.6049329582983
 21
271.2461647440162
 31
0.0
 11
181.5884592237729
 21
271.2568878601252
 31
0.0
 11
181.5668236174329
 21
271.2651860586158
 31
0.0
 11
181.5283299685922
 21
271.2717082663183
 31
0.0
 11
181.487774485056
 21
271.270368858358
 31
0.0
  0
SPLINE
  5
2D1
330
1F
100
AcDbEntity
  8
0
  6
Continuous
 62
     7
100
AcDbSpline
210
0.0
220
0.0
230
1.0
 70
     8
 71
     3
 72
    11
 73
     7
 74
     5
 42
0.000000001
 43
0.0000000001
 44
0.00000001
 40
0.0
 40
0.0
 40
0.0
 40
0.0
 40
0.0375373608961032
 40
0.0683752961209757
 40
0.0847289131940795
 40
0.0985948310596789
 40
0.0985948310596789
 40
0.0985948310596789
 40
0.0985948310596789
 10
181.5417979986594
 20
271.1740953568075
 30
0.0
 10
181.5541635924367
 20
271.1764251273718
 30
0.0
 10
181.5766878455522
 20
271.1806688715775
 30
0.0
 10
181.6019114273422
 20
271.194185194835
 30
0.0
 10
181.6164540775515
 20
271.2096304344963
 30
0.0
 10
181.6181671368654
 20
271.2197542175398
 30
0.0
 10
181.618953149725
 20
271.2243994116676
 30
0.0
 11
181.5417979986594
 21
271.1740953568075
 31
0.0
 11
181.5782410231072
 21
271.1830930653674
 31
0.0
 11
181.6050239994267
 21
271.1983786978079
 31
0.0
 11
181.6154404075087
 21
271.2109858192449
 31
0.0
 11
181.618953149725
 21
271.2243994116676
 31
0.0
  0
SPLINE
  5
2D2
330
1F
100
AcDbEntity
  8
0
  6
Continuous
 62
     7
100
AcDbSpline
210
0.0
220
0.0
230
1.0
 70
     8
 71
     3
 72
     9
 73
     5
 74
     3
 42
0.000000001
 43
0.0000000001
 44
0.00000001
 40
0.0
 40
0.0
 40
0.0
 40
0.0
 40
0.0214507538947775
 40
0.0496531152847476
 40
0.0496531152847476
 40
0.0496531152847476
 40
0.0496531152847476
 10
180.8146178401929
 20
271.3319359110478
 30
0.0
 10
180.8126403392916
 20
271.3390894217509
 30
0.0
 10
180.8080629036201
 20
271.3556479960262
 30
0.0
 10
180.7927855723705
 20
271.364013068636
 30
0.0
 10
180.7841082274818
 20
271.3687643200805
 30
0.0
 11
180.8146178401929
 21
271.3319359110478
 31
0.0
 11
180.806688360161
 21
271.3518672508302
 31
0.0
 11
180.7841082274818
 21
271.3687643200805
 31
0.0
  0
SPLINE
  5
2D3
330
1F
100
AcDbEntity
  8
0
  6
Continuous
 62
     7
100
AcDbSpline
210
0.0
220
0.0
230
1.0
 70
     8
 71
     3
 72
     9
 73
     5
 74
     3
 42
0.000000001
 43
0.0000000001
 44
0.00000001
 40
0.0
 40
0.0
 40
0.0
 40
0.0
 40
0.019981623985003
 40
0.0457117864265314
 40
0.0457117864265314
 40
0.0457117864265314
 40
0.0457117864265314
 10
180.2253595238711
 20
271.0373067528868
 30
0.0
 10
180.2226542683492
 20
271.0435838601169
 30
0.0
 10
180.2164654626651
 20
271.0579439326473
 30
0.0
 10
180.2026348610932
 20
271.0655332067599
 30
0.0
 10
180.1948499111601
 20
271.0698050349004
 30
0.0
 11
180.2253595238711
 21
271.0373067528868
 31
0.0
 11
180.2157835900035
 21
271.0548443375808
 31
0.0
 11
180.1948499111601
 21
271.0698050349004
 31
0.0
  0
SPLINE
  5
2D4
330
1F
100
AcDbEntity
  8
0
  6
Continuous
 62
     7
100
AcDbSpline
210
0.0
220
0.0
230
1.0
 70
     8
 71
     3
 72
     9
 73
     5
 74
     3
 42
0.000000001
 43
0.0000000001
 44
0.00000001
 40
0.0
 40
0.0
 40
0.0
 40
0.0
 40
0.0486294253347423
 40
0.1025754614840632
 40
0.1025754614840632
 40
0.1025754614840632
 40
0.1025754614840632
 10
180.5120665779956
 20
271.0628414493021
 30
0.0
 10
180.527490266343
 20
271.0572811899705
 30
0.0
 10
180.5600239051157
 20
271.0455527924728
 30
0.0
 10
180.5945682036934
 20
271.048053220323
 30
0.0
 10
180.6127355902675
 20
271.0493682446818
 30
0.0
 11
180.5120665779956
 21
271.0628414493021
 31
0.0
 11
180.5587895535627
 21
271.0493586936938
 31
0.0
 11
180.6127355902675
 21
271.0493682446818
 31
0.0
  0
SPLINE
  5
2D5
330
1F
100
AcDbEntity
  8
0
  6
Continuous
 62
     7
100
AcDbSpline
210
0.0
220
0.0
230
1.0
 70
     8
 71
     3
 72
     9
 73
     5
 74
     3
 42
0.000000001
 43
0.0000000001
 44
0.00000001
 40
0.0
 40
0.0
 40
0.0
 40
0.0
 40
0.0214507538948517
 40
0.0496531152847989
 40
0.0496531152847989
 40
0.0496531152847989
 40
0.0496531152847989
 10
180.2253595238711
 20
271.0373067528868
 30
0.0
 10
180.2233820229698
 20
271.04446026359
 30
0.0
 10
180.2188045872985
 20
271.0610188378653
 30
0.0
 10
180.2035272560489
 20
271.0693839104752
 30
0.0
 10
180.1948499111601
 20
271.0741351619196
 30
0.0
 11
180.2253595238711
 21
271.0373067528868
 31
0.0
 11
180.2174300438393
 21
271.0572380926693
 31
0.0
 11
180.1948499111601
 21
271.0741351619196
 31
0.0
  0
SPLINE
  5
2D6
330
1F
100
AcDbEntity
  8
0
  6
Continuous
 62
     7
100
AcDbSpline
210
0.0
220
0.0
230
1.0
 70
     8
 71
     3
 72
    19
 73
    15
 74
    13
 42
0.000000001
 43
0.0000000001
 44
0.00000001
 40
0.0
 40
0.0
 40
0.0
 40
0.0
 40
0.0170797820107849
 40
0.0308350856347261
 40
0.0477110691205702
 40
0.0652754231350614
 40
0.0908900832363148
 40
0.1159205443682251
 40
0.1341395642391547
 40
0.1596766700005237
 40
0.1702929447128787
 40
0.1830078837987943
 40
0.1913837895093861
 40
0.2017515288419806
 40
0.2017515288419806
 40
0.2017515288419806
 40
0.2017515288419806
 10
180.0475353320796
 20
271.0004778723794
 30
0.0
 10
180.0527482168036
 20
270.9981671689164
 30
0.0
 10
180.0621593320451
 20
270.9939955342678
 30
0.0
 10
180.0775429277183
 20
270.989806133421
 30
0.0
 10
180.0933491432748
 20
270.986850443189
 30
0.0
 10
180.1133093031755
 20
270.9849961661499
 30
0.0
 10
180.1360986661577
 20
270.9852367878494
 30
0.0
 10
180.1589228470038
 20
270.9883064242977
 30
0.0
 10
180.1811274448413
 20
270.9941164521352
 30
0.0
 10
180.1979487655812
 20
271.0013518979962
 30
0.0
 10
180.2113441117906
 20
271.0107225599448
 30
0.0
 10
180.2187519727372
 20
271.0183674761965
 30
0.0
 10
180.2241970458947
 20
271.0275562963942
 30
0.0
 10
180.2249455213856
 20
271.0338342205062
 30
0.0
 10
180.2253595238711
 20
271.0373067528868
 30
0.0
 11
180.0475353320796
 21
271.0004778723794
 31
0.0
 11
180.0633369331242
 21
270.9939949671601
 31
0.0
 11
180.0765708497871
 21
270.9902437265138
 31
0.0
 11
180.0931598046281
 21
270.9871444685621
 31
0.0
 11
180.1106461154998
 21
270.9854905441147
 31
0.0
 11
180.1362592441984
 21
270.9857706259075
 31
0.0
 11
180.161055337358
 21
270.9891878961938
 31
0.0
 11
180.1786632333655
 21
270.9938670705023
 31
0.0
 11
180.2019287957151
 21
271.004395951712
 31
0.0
 11
180.210573303606
 21
271.0105585613762
 31
0.0
 11
180.2193015926146
 21
271.0198044578436
 31
0.0
 11
180.2233538990104
 21
271.0271348459927
 31
0.0
 11
180.2253595238711
 21
271.0373067528868
 31
0.0
  0
SPLINE
  5
2D7
330
1F
100
AcDbEntity
  8
0
  6
Continuous
 62
     7
100
AcDbSpline
210
0.0
220
0.0
230
1.0
 70
     8
 71
     3
 72
     9
 73
     5
 74
     3
 42
0.000000001
 43
0.0000000001
 44
0.00000001
 40
0.0
 40
0.0
 40
0.0
 40
0.0
 40
0.1029638051846892
 40
0.2383355350531261
 40
0.2383355350531261
 40
0.2383355350531261
 40
0.2383355350531261
 10
170.0795112163441
 20
279.0305123253551
 30
0.0
 10
170.070019166237
 20
278.9961754225759
 30
0.0
 10
170.0480474200202
 20
278.916694063381
 30
0.0
 10
169.9747159892924
 20
278.8765416899784
 30
0.0
 10
169.9330646069374
 20
278.8537356300585
 30
0.0
 11
170.0795112163441
 21
279.0305123253551
 31
0.0
 11
170.0414495780743
 21
278.9348417581505
 31
0.0
 11
169.9330646069374
 21
278.8537356300585
 31
0.0
  0
SPLINE
  5
2D8
330
1F
100
AcDbEntity
  8
0
  6
Continuous
 62
     7
100
AcDbSpline
210
0.0
220
0.0
230
1.0
 70
     8
 71
     3
 72
    11
 73
     7
 74
     5
 42
0.000000001
 43
0.0000000001
 44
0.00000001
 40
0.0
 40
0.0
 40
0.0
 40
0.0
 40
0.1710252651245859
 40
0.3633104721066132
 40
0.5555956790886971
 40
0.7266209442133639
 40
0.7266209442133639
 40
0.7266209442133639
 40
0.7266209442133639
 10
165.5490025635808
 20
278.7473088065419
 30
0.0
 10
165.6024477538388
 20
278.7266403002855
 30
0.0
 10
165.7159818453787
 20
278.6827340257098
 30
0.0
 10
165.9025559541741
 20
278.6695082111347
 30
0.0
 10
166.0891300629693
 20
278.6827340257098
 30
0.0
 10
166.2026641545094
 20
278.7266403002855
 30
0.0
 10
166.2561093447674
 20
278.7473088065419
 30
0.0
 11
165.5490025635808
 21
278.7473088065419
 31
0.0
 11
165.711214819765
 21
278.6931163209736
 31
0.0
 11
165.902555954174
 21
278.6740855018387
 31
0.0
 11
166.0938970885831
 21
278.6931163209736
 31
0.0
 11
166.2561093447674
 21
278.7473088065419
 31
0.0
  0
SPLINE
  5
2D9
330
1F
100
AcDbEntity
  8
0
  6
Continuous
 62
     7
100
AcDbSpline
210
0.0
220
0.0
230
1.0
 70
     8
 71
     3
 72
    11
 73
     7
 74
     5
 42
0.000000001
 43
0.0000000001
 44
0.00000001
 40
0.0
 40
0.0
 40
0.0
 40
0.0
 40
0.1710252651246219
 40
0.3633104721066605
 40
0.5555956790887556
 40
0.7266209442133775
 40
0.7266209442133775
 40
0.7266209442133775
 40
0.7266209442133775
 10
165.5490025635808
 20
277.0152579989734
 30
0.0
 10
165.6024477538388
 20
276.994589492717
 30
0.0
 10
165.7159818453787
 20
276.9506832181413
 30
0.0
 10
165.9025559541741
 20
276.9374574035658
 30
0.0
 10
166.0891300629693
 20
276.9506832181413
 30
0.0
 10
166.2026641545094
 20
276.994589492717
 30
0.0
 10
166.2561093447673
 20
277.0152579989734
 30
0.0
 11
165.5490025635808
 21
277.0152579989734
 31
0.0
 11
165.711214819765
 21
276.9610655134049
 31
0.0
 11
165.902555954174
 21
276.94203469427
 31
0.0
 11
166.0938970885831
 21
276.9610655134049
 31
0.0
 11
166.2561093447673
 21
277.0152579989734
 31
0.0
  0
SPLINE
  5
2DA
330
1F
100
AcDbEntity
  8
0
  6
Continuous
 62
     7
100
AcDbSpline
210
0.0
220
0.0
230
1.0
 70
     8
 71
     3
 72
     9
 73
     5
 74
     3
 42
0.000000001
 43
0.0000000001
 44
0.00000001
 40
0.0
 40
0.0
 40
0.0
 40
0.0
 40
0.1029638051846364
 40
0.2383355350531414
 40
0.2383355350531414
 40
0.2383355350531414
 40
0.2383355350531414
 10
170.0795112163441
 20
280.7625631329237
 30
0.0
 10
170.0700191662369
 20
280.7282262301444
 30
0.0
 10
170.0480474200202
 20
280.6487448709495
 30
0.0
 10
169.9747159892924
 20
280.6085924975469
 30
0.0
 10
169.9330646069374
 20
280.585786437627
 30
0.0
 11
170.0795112163441
 21
280.7625631329237
 31
0.0
 11
170.0414495780743
 21
280.6668925657191
 31
0.0
 11
169.9330646069374
 21
280.585786437627
 31
0.0
  0
SPLINE
  5
2DB
330
1F
100
AcDbEntity
  8
0
  6
Continuous
 62
     7
100
AcDbSpline
210
0.0
220
0.0
230
1.0
 70
     8
 71
     3
 72
     9
 73
     5
 74
     3
 42
0.000000001
 43
0.0000000001
 44
0.00000001
 40
0.0
 40
0.0
 40
0.0
 40
0.0
 40
0.135371729868505
 40
0.2383355350530358
 40
0.2383355350530358
 40
0.2383355350530358
 40
0.2383355350530358
 10
169.9330646069374
 20
280.9393398282202
 30
0.0
 10
169.9747159892924
 20
280.9165337683003
 30
0.0
 10
170.0480474200201
 20
280.8763813948977
 30
0.0
 10
170.0700191662369
 20
280.7969000357028
 30
0.0
 10
170.0795112163441
 20
280.7625631329237
 30
0.0
 11
169.9330646069374
 21
280.9393398282202
 31
0.0
 11
170.0414495780743
 21
280.8582337001281
 31
0.0
 11
170.0795112163441
 21
280.7625631329237
 31
0.0
  0
SPLINE
  5
2DC
330
1F
100
AcDbEntity
  8
0
  6
Continuous
 62
     7
100
AcDbSpline
210
0.0
220
0.0
230
1.0
 70
     8
 71
     3
 72
     9
 73
     5
 74
     3
 42
0.000000001
 43
0.0000000001
 44
0.00000001
 40
0.0
 40
0.0
 40
0.0
 40
0.0
 40
0.7411484605611569
 40
1.381992291007113
 40
1.381992291007113
 40
1.381992291007113
 40
1.381992291007113
 10
144.6310573548705
 20
281.2397456648223
 30
0.0
 10
144.3950929170128
 20
281.338939344144
 30
0.0
 10
143.9550987006012
 20
281.5239021328873
 30
0.0
 10
143.5003077433192
 20
281.3879796623633
 30
0.0
 10
143.2894165683706
 20
281.3249510264687
 30
0.0
 11
144.6310573548705
 21
281.2397456648223
 31
0.0
 11
143.918908395157
 21
281.4450379033909
 31
0.0
 11
143.2894165683706
 21
281.3249510264687
 31
0.0
  0
SPLINE
  5
2DD
330
1F
100
AcDbEntity
  8
0
  6
Continuous
 62
     7
100
AcDbSpline
210
0.0
220
0.0
230
1.0
 70
     8
 71
     3
 72
    11
 73
     7
 74
     5
 42
0.000000001
 43
0.0000000001
 44
0.00000001
 40
0.0
 40
0.0
 40
0.0
 40
0.0
 40
0.1710252651246489
 40
0.363310472106713
 40
0.5555956790888052
 40
0.7266209442134272
 40
0.7266209442134272
 40
0.7266209442134272
 40
0.7266209442134272
 10
165.5490025635805
 20
248.948891687278
 30
0.0
 10
165.4955573733226
 20
248.9282231810215
 30
0.0
 10
165.3820232817826
 20
248.8843169064457
 30
0.0
 10
165.1954491729873
 20
248.8710910918703
 30
0.0
 10
165.008875064192
 20
248.8843169064458
 30
0.0
 10
164.8953409726519
 20
248.9282231810214
 30
0.0
 10
164.841895782394
 20
248.948891687278
 30
0.0
 11
165.5490025635805
 21
248.948891687278
 31
0.0
 11
165.3867903073963
 21
248.8946992017095
 31
0.0
 11
165.1954491729873
 21
248.8756683825745
 31
0.0
 11
165.0041080385782
 21
248.8946992017095
 31
0.0
 11
164.841895782394
 21
248.948891687278
 31
0.0
  0
SPLINE
  5
2DE
330
1F
100
AcDbEntity
  8
0
  6
Continuous
 62
     7
100
AcDbSpline
210
0.0
220
0.0
230
1.0
 70
     8
 71
     3
 72
    11
 73
     7
 74
     5
 42
0.000000001
 43
0.0000000001
 44
0.00000001
 40
0.0
 40
0.0
 40
0.0
 40
0.0
 40
1.011643760547367
 40
2.15041678085542
 40
3.317613767856635
 40
4.404653526265702
 40
4.404653526265702
 40
4.404653526265702
 40
4.404653526265702
 10
143.2168437924972
 20
266.7628349634632
 30
0.0
 10
142.9326597993283
 20
266.9493518585112
 30
0.0
 10
142.3285795467991
 20
267.345824499319
 30
0.0
 10
141.6807571890751
 20
268.2650472339338
 30
0.0
 10
141.2024513323341
 20
269.3054489024764
 30
0.0
 10
141.1303110051764
 20
270.0584557908023
 30
0.0
 10
141.0955234489377
 20
270.4215713465964
 30
0.0
 11
143.2168437924972
 21
266.7628349634632
 31
0.0
 11
142.405052110534
 21
267.3665048783531
 31
0.0
 11
141.7168437924973
 21
268.2737938677292
 31
0.0
 11
141.2570053040799
 21
269.3465927199024
 31
0.0
 11
141.0955234489377
 21
270.4215713465964
 31
0.0
  0
SPLINE
  5
2DF
330
1F
100
AcDbEntity
  8
0
  6
Continuous
 62
     7
100
AcDbSpline
210
0.0
220
0.0
230
1.0
 70
     8
 71
     3
 72
     9
 73
     5
 74
     3
 42
0.000000001
 43
0.0000000001
 44
0.00000001
 40
0.0
 40
0.0
 40
0.0
 40
0.0
 40
0.741148460561243
 40
1.381992291007255
 40
1.381992291007255
 40
1.381992291007255
 40
1.381992291007255
 10
143.2168437924975
 20
280.5326388836357
 30
0.0
 10
142.9808793546398
 20
280.6318325629575
 30
0.0
 10
142.5408851382282
 20
280.8167953517009
 30
0.0
 10
142.0860941809461
 20
280.6808728811768
 30
0.0
 10
141.8752030059975
 20
280.6178442452822
 30
0.0
 11
143.2168437924975
 21
280.5326388836357
 31
0.0
 11
142.5046948327839
 21
280.7379311222044
 31
0.0
 11
141.8752030059975
 21
280.6178442452822
 31
0.0
  0
SPLINE
  5
2E0
330
1F
100
AcDbEntity
  8
0
  6
Continuous
 62
     7
100
AcDbSpline
210
0.0
220
0.0
230
1.0
 70
     8
 71
     3
 72
     9
 73
     5
 74
     3
 42
0.000000001
 43
0.0000000001
 44
0.00000001
 40
0.0
 40
0.0
 40
0.0
 40
0.0
 40
0.839121466831081
 40
1.87099736802038
 40
1.87099736802038
 40
1.87099736802038
 40
1.87099736802038
 10
141.8752030059975
 20
280.6178442452822
 30
0.0
 10
141.6530628447871
 20
280.4298681198607
 30
0.0
 10
141.1577547628868
 20
280.0107358971605
 30
0.0
 10
141.1176446265148
 20
279.356204311935
 30
0.0
 10
141.0955234489377
 20
278.9952228440623
 30
0.0
 11
141.8752030059975
 21
280.6178442452822
 31
0.0
 11
141.3003420673519
 21
280.0065671052606
 31
0.0
 11
141.0955234489377
 21
278.9952228440623
 31
0.0
  0
DIMENSION
  5
2EC
330
1F
100
AcDbEntity
  8
1
100
AcDbDimension
  2
*D3
 10
174.022031142599
 20
188.1259852874484
 30
0.0
 11
170.372031142599
 21
156.3259852874486
 31
0.0
 70
    32
  1
<>
 71
     5
 42
-1.0
 53
90.0
  3
ME10_DIM_10
100
AcDbAlignedDimension
 13
157.0220311425994
 23
124.5259852874487
 33
0.0
 14
146.9720311425988
 24
188.1259852874484
 34
0.0
 50
90.0
100
AcDbRotatedDimension
  0
DIMENSION
  5
2F7
330
1F
100
AcDbEntity
  8
1
100
AcDbDimension
  2
*D4
 10
127.0220311425989
 20
198.1259852874484
 30
0.0
 11
142.0220311425991
 21
201.6259852874484
 31
0.0
 70
    32
  1
<>
 71
     5
 42
-1.0
 53
0.00013888888889
  3
ME10_DIM_11
100
AcDbAlignedDimension
 13
157.0220311425992
 23
158.7259852874485
 33
0.0
 14
127.0220311425988
 24
158.7259852874485
 34
0.0
100
AcDbRotatedDimension
  0
DIMENSION
  5
302
330
1F
100
AcDbEntity
  8
1
100
AcDbDimension
  2
*D5
 10
71.8220313096254
 20
198.1259852874484
 30
0.0
 11
79.17203130962542
 21
201.7759852874484
 31
0.0
 70
    32
  1
<>
 71
     5
 42
-1.0
 53
0.00013888888889
  3
ME10_DIM_12
100
AcDbAlignedDimension
 13
86.52203130962545
 23
158.7259852874484
 33
0.0
 14
71.8220313096254
 24
158.7259852874484
 34
0.0
100
AcDbRotatedDimension
  0
ENDSEC
  0
SECTION
  2
OBJECTS
  0
DICTIONARY
  5
C
330
0
100
AcDbDictionary
281
     1
  3
ACAD_GROUP
350
D
  3
ACAD_LAYOUT
350
1A
  3
ACAD_MATERIAL
350
3B
  3
ACAD_MLEADERSTYLE
350
305
  3
ACAD_MLINESTYLE
350
17
  3
ACAD_PLOTSETTINGS
350
19
  3
ACAD_PLOTSTYLENAME
350
E
  3
ACAD_VISUALSTYLE
350
2A
  3
AcDbVariableDictionary
350
303
  0
DICTIONARY
  5
D
102
{ACAD_REACTORS
330
C
102
}
330
C
100
AcDbDictionary
281
     1
  0
DICTIONARY
  5
1A
102
{ACAD_REACTORS
330
C
102
}
330
C
100
AcDbDictionary
281
     1
  3
Layout1
350
1E
  3
Layout2
350
26
  3
Model
350
22
  0
DICTIONARY
  5
3B
102
{ACAD_REACTORS
330
C
102
}
330
C
100
AcDbDictionary
281
     1
  3
ByBlock
350
3D
  3
ByLayer
350
3C
  3
Global
350
3E
  0
DICTIONARY
  5
305
102
{ACAD_REACTORS
330
C
102
}
330
C
100
AcDbDictionary
281
     1
  0
DICTIONARY
  5
17
102
{ACAD_REACTORS
330
C
102
}
330
C
100
AcDbDictionary
281
     1
  3
Standard
350
18
  0
DICTIONARY
  5
19
102
{ACAD_REACTORS
330
C
102
}
330
C
100
AcDbDictionary
281
     1
  0
ACDBDICTIONARYWDFLT
  5
E
102
{ACAD_REACTORS
330
C
102
}
330
C
100
AcDbDictionary
281
     1
  3
Normal
350
F
100
AcDbDictionaryWithDefault
340
F
  0
DICTIONARY
  5
2A
102
{ACAD_REACTORS
330
C
102
}
330
C
100
AcDbDictionary
281
     1
  3
2dWireframe
350
2F
  3
3D Hidden
350
31
  3
3dWireframe
350
30
  3
Basic
350
32
  3
Brighten
350
36
  3
ColorChange
350
3A
  3
Conceptual
350
34
  3
Dim
350
35
  3
Facepattern
350
39
  3
Flat
350
2B
  3
FlatWithEdges
350
2C
  3
Gouraud
350
2D
  3
GouraudWithEdges
350
2E
  3
Linepattern
350
38
  3
Realistic
350
33
  3
Thicken
350
37
  0
DICTIONARY
  5
303
102
{ACAD_REACTORS
330
C
102
}
330
C
100
AcDbDictionary
281
     1
  3
DIMASSOC
350
306
  3
HIDETEXT
350
307
  0
LAYOUT
  5
1E
102
{ACAD_REACTORS
330
1A
102
}
330
1A
100
AcDbPlotSettings
  1

  2
none_device
  4

  6

 40
0.0
 41
0.0
 42
0.0
 43
0.0
 44
0.0
 45
0.0
 46
0.0
 47
0.0
 48
0.0
 49
0.0
140
0.0
141
0.0
142
1.0
143
1.0
 70
   688
 72
     0
 73
     0
 74
     5
  7

 75
    16
147
1.0
148
0.0
149
0.0
100
AcDbLayout
  1
Layout1
 70
     1
 71
     1
 10
0.0
 20
0.0
 11
12.0
 21
9.0
 12
0.0
 22
0.0
 32
0.0
 14
1.00000000000000E+20
 24
1.00000000000000E+20
 34
1.00000000000000E+20
 15
-1.00000000000000E+20
 25
-1.00000000000000E+20
 35
-1.00000000000000E+20
146
0.0
 13
0.0
 23
0.0
 33
0.0
 16
1.0
 26
0.0
 36
0.0
 17
0.0
 27
1.0
 37
0.0
 76
     0
330
1B
  0
LAYOUT
  5
26
102
{ACAD_REACTORS
330
1A
102
}
330
1A
100
AcDbPlotSettings
  1

  2
none_device
  4

  6

 40
0.0
 41
0.0
 42
0.0
 43
0.0
 44
0.0
 45
0.0
 46
0.0
 47
0.0
 48
0.0
 49
0.0
140
0.0
141
0.0
142
1.0
143
1.0
 70
   688
 72
     0
 73
     0
 74
     5
  7

 75
    16
147
1.0
148
0.0
149
0.0
100
AcDbLayout
  1
Layout2
 70
     1
 71
     2
 10
0.0
 20
0.0
 11
0.0
 21
0.0
 12
0.0
 22
0.0
 32
0.0
 14
0.0
 24
0.0
 34
0.0
 15
0.0
 25
0.0
 35
0.0
146
0.0
 13
0.0
 23
0.0
 33
0.0
 16
1.0
 26
0.0
 36
0.0
 17
0.0
 27
1.0
 37
0.0
 76
     0
330
23
  0
LAYOUT
  5
22
102
{ACAD_REACTORS
330
1A
102
}
330
1A
100
AcDbPlotSettings
  1

  2
none_device
  4

  6

 40
0.0
 41
0.0
 42
0.0
 43
0.0
 44
0.0
 45
0.0
 46
0.0
 47
0.0
 48
0.0
 49
0.0
140
0.0
141
0.0
142
1.0
143
1.0
 70
  1712
 72
     0
 73
     0
 74
     0
  7

 75
     0
147
1.0
148
0.0
149
0.0
100
AcDbLayout
  1
Model
 70
     1
 71
     0
 10
0.0
 20
0.0
 11
12.0
 21
9.0
 12
0.0
 22
0.0
 32
0.0
 14
0.0
 24
0.0
 34
0.0
 15
210.0000000000001
 25
297.0000000000001
 35
0.0
146
0.0
 13
0.0
 23
0.0
 33
0.0
 16
1.0
 26
0.0
 36
0.0
 17
0.0
 27
1.0
 37
0.0
 76
     0
330
1F
331
29
  0
MATERIAL
  5
3D
102
{ACAD_REACTORS
330
3B
102
}
102
{ACAD_XDICTIONARY
360
32A
102
}
330
3B
100
AcDbMaterial
  1
ByBlock
  0
MATERIAL
  5
3C
102
{ACAD_REACTORS
330
3B
102
}
102
{ACAD_XDICTIONARY
360
328
102
}
330
3B
100
AcDbMaterial
  1
ByLayer
  0
MATERIAL
  5
3E
102
{ACAD_REACTORS
330
3B
102
}
102
{ACAD_XDICTIONARY
360
32C
102
}
330
3B
100
AcDbMaterial
  1
Global
  0
MLINESTYLE
  5
18
102
{ACAD_REACTORS
330
17
102
}
330
17
100
AcDbMlineStyle
  2
Standard
 70
     0
  3

 62
   256
 51
90.0
 52
90.0
 71
     2
 49
0.5
 62
   256
  6
BYLAYER
 49
-0.5
 62
   256
  6
BYLAYER
  0
ACDBPLACEHOLDER
  5
F
102
{ACAD_REACTORS
330
E
102
}
330
E
  0
VISUALSTYLE
  5
2F
102
{ACAD_REACTORS
330
2A
102
}
102
{ACAD_XDICTIONARY
360
310
102
}
330
2A
100
AcDbVisualStyle
  2
2dWireframe
 70
     4
 71
     0
 72
     2
 73
     0
 90
        0
 40
-0.6
 41
-30.0
 62
     5
 63
     7
 74
     1
 91
        4
 64
     7
 65
   257
 75
     1
175
     1
 42
1.0
 92
        0
 66
   257
 43
1.0
 76
     1
 77
     6
 78
     2
 67
     7
 79
     5
170
     0
171
     0
290
     0
174
     0
 93
        1
 44
0.0
173
     0
291
     0
 45
0.0
1001
ACAD
1000
AcDbSavedByObjectVersion
1070
     0
  0
VISUALSTYLE
  5
31
102
{ACAD_REACTORS
330
2A
102
}
102
{ACAD_XDICTIONARY
360
314
102
}
330
2A
100
AcDbVisualStyle
  2
3D Hidden
 70
     6
 71
     1
 72
     2
 73
     2
 90
        0
 40
-0.6
 41
-30.0
 62
     5
 63
     7
 74
     2
 91
        2
 64
     7
 65
   257
 75
     2
175
     1
 42
40.0
 92
        0
 66
   257
 43
1.0
 76
     1
 77
     6
 78
     2
 67
     7
 79
     3
170
     0
171
     0
290
     0
174
     0
 93
        1
 44
0.0
173
     0
291
     0
 45
0.0
1001
ACAD
1000
AcDbSavedByObjectVersion
1070
     0
  0
VISUALSTYLE
  5
30
102
{ACAD_REACTORS
330
2A
102
}
102
{ACAD_XDICTIONARY
360
312
102
}
330
2A
100
AcDbVisualStyle
  2
3dWireframe
 70
     5
 71
     0
 72
     2
 73
     0
 90
        0
 40
-0.6
 41
-30.0
 62
     5
 63
     7
 74
     1
 91
        4
 64
     7
 65
   257
 75
     1
175
     1
 42
1.0
 92
        0
 66
   257
 43
1.0
 76
     1
 77
     6
 78
     2
 67
     7
 79
     5
170
     0
171
     0
290
     0
174
     0
 93
        1
 44
0.0
173
     0
291
     0
 45
0.0
1001
ACAD
1000
AcDbSavedByObjectVersion
1070
     0
  0
VISUALSTYLE
  5
32
102
{ACAD_REACTORS
330
2A
102
}
102
{ACAD_XDICTIONARY
360
316
102
}
330
2A
100
AcDbVisualStyle
  2
Basic
 70
     7
 71
     1
 72
     0
 73
     1
 90
        0
 40
-0.6
 41
-30.0
 62
     5
 63
     7
 74
     0
 91
        4
 64
     7
 65
   257
 75
     1
175
     1
 42
1.0
 92
        8
 66
     7
 43
1.0
 76
     1
 77
     6
 78
     2
 67
     7
 79
     5
170
     0
171
     0
290
     0
174
     0
 93
        1
 44
0.0
173
     0
291
     1
 45
0.0
1001
ACAD
1000
AcDbSavedByObjectVersion
1070
     0
  0
VISUALSTYLE
  5
36
102
{ACAD_REACTORS
330
2A
102
}
102
{ACAD_XDICTIONARY
360
31E
102
}
330
2A
100
AcDbVisualStyle
  2
Brighten
 70
    12
 71
     2
 72
     2
 73
     0
 90
        0
 40
-0.6
 41
-30.0
 62
     5
 63
     7
 74
     1
 91
        4
 64
     7
 65
   257
 75
     1
175
     1
 42
1.0
 92
        8
 66
     7
 43
1.0
 76
     1
 77
     6
 78
     2
 67
     7
 79
     5
170
     0
171
     0
290
     0
174
     0
 93
        1
 44
50.0
173
     0
291
     1
 45
0.0
1001
ACAD
1000
AcDbSavedByObjectVersion
1070
     0
  0
VISUALSTYLE
  5
3A
102
{ACAD_REACTORS
330
2A
102
}
102
{ACAD_XDICTIONARY
360
326
102
}
330
2A
100
AcDbVisualStyle
  2
ColorChange
 70
    16
 71
     2
 72
     2
 73
     3
 90
        0
 40
-0.6
 41
-30.0
 62
     5
 63
     8
 74
     1
 91
        4
 64
     7
 65
   257
 75
     1
175
     1
 42
1.0
 92
        8
 66
     8
 43
1.0
 76
     1
 77
     6
 78
     2
 67
     7
 79
     5
170
     0
171
     0
290
     0
174
     0
 93
        1
 44
0.0
173
     0
291
     1
 45
0.0
1001
ACAD
1000
AcDbSavedByObjectVersion
1070
     0
  0
VISUALSTYLE
  5
34
102
{ACAD_REACTORS
330
2A
102
}
102
{ACAD_XDICTIONARY
360
31A
102
}
330
2A
100
AcDbVisualStyle
  2
Conceptual
 70
     9
 71
     3
 72
     2
 73
     0
 90
        0
 40
-0.6
 41
-30.0
 62
     5
 63
     7
 74
     2
 91
        2
 64
     7
 65
   257
 75
     1
175
     1
 42
40.0
 92
        8
 66
     7
 43
1.0
 76
     1
 77
     6
 78
     2
 67
     7
 79
     3
170
     0
171
     0
290
     0
174
     0
 93
        1
 44
0.0
173
     0
291
     0
 45
0.0
1001
ACAD
1000
AcDbSavedByObjectVersion
1070
     0
  0
VISUALSTYLE
  5
35
102
{ACAD_REACTORS
330
2A
102
}
102
{ACAD_XDICTIONARY
360
31C
102
}
330
2A
100
AcDbVisualStyle
  2
Dim
 70
    11
 71
     2
 72
     2
 73
     0
 90
        0
 40
-0.6
 41
-30.0
 62
     5
 63
     7
 74
     1
 91
        4
 64
     7
 65
   257
 75
     1
175
     1
 42
1.0
 92
        8
 66
     7
 43
1.0
 76
     1
 77
     6
 78
     2
 67
     7
 79
     5
170
     0
171
     0
290
     0
174
     0
 93
        1
 44
-50.0
173
     0
291
     1
 45
0.0
1001
ACAD
1000
AcDbSavedByObjectVersion
1070
     0
  0
VISUALSTYLE
  5
39
102
{ACAD_REACTORS
330
2A
102
}
102
{ACAD_XDICTIONARY
360
324
102
}
330
2A
100
AcDbVisualStyle
  2
Facepattern
 70
    15
 71
     2
 72
     2
 73
     0
 90
        0
 40
-0.6
 41
-30.0
 62
     5
 63
     7
 74
     1
 91
        4
 64
     7
 65
   257
 75
     1
175
     1
 42
1.0
 92
        8
 66
     7
 43
1.0
 76
     1
 77
     6
 78
     2
 67
     7
 79
     5
170
     0
171
     0
290
     0
174
     0
 93
        1
 44
0.0
173
     0
291
     1
 45
0.0
1001
ACAD
1000
AcDbSavedByObjectVersion
1070
     0
  0
VISUALSTYLE
  5
2B
102
{ACAD_REACTORS
330
2A
102
}
102
{ACAD_XDICTIONARY
360
308
102
}
330
2A
100
AcDbVisualStyle
  2
Flat
 70
     0
 71
     2
 72
     1
 73
     1
 90
        2
 40
-0.6
 41
30.0
 62
     5
 63
     7
 74
     0
 91
        4
 64
     7
 65
   257
 75
     1
175
     1
 42
1.0
 92
        8
 66
     7
 43
1.0
 76
     1
 77
     6
 78
     2
 67
     7
 79
     5
170
     0
171
     0
290
     0
174
     0
 93
       13
 44
0.0
173
     0
291
     1
 45
0.0
1001
ACAD
1000
AcDbSavedByObjectVersion
1070
     0
  0
VISUALSTYLE
  5
2C
102
{ACAD_REACTORS
330
2A
102
}
102
{ACAD_XDICTIONARY
360
30A
102
}
330
2A
100
AcDbVisualStyle
  2
FlatWithEdges
 70
     1
 71
     2
 72
     1
 73
     1
 90
        2
 40
-0.6
 41
30.0
 62
     5
 63
     7
 74
     1
 91
        4
 64
     7
 65
   257
 75
     1
175
     1
 42
1.0
 92
        0
 66
   257
 43
1.0
 76
     1
 77
     6
 78
     2
 67
     7
 79
     5
170
     0
171
     0
290
     0
174
     0
 93
       13
 44
0.0
173
     0
291
     1
 45
0.0
1001
ACAD
1000
AcDbSavedByObjectVersion
1070
     0
  0
VISUALSTYLE
  5
2D
102
{ACAD_REACTORS
330
2A
102
}
102
{ACAD_XDICTIONARY
360
30C
102
}
330
2A
100
AcDbVisualStyle
  2
Gouraud
 70
     2
 71
     2
 72
     2
 73
     1
 90
        2
 40
-0.6
 41
30.0
 62
     5
 63
     7
 74
     0
 91
        4
 64
     7
 65
   257
 75
     1
175
     1
 42
1.0
 92
        0
 66
     7
 43
1.0
 76
     1
 77
     6
 78
     2
 67
     7
 79
     5
170
     0
171
     0
290
     0
174
     0
 93
       13
 44
0.0
173
     0
291
     1
 45
0.0
1001
ACAD
1000
AcDbSavedByObjectVersion
1070
     0
  0
VISUALSTYLE
  5
2E
102
{ACAD_REACTORS
330
2A
102
}
102
{ACAD_XDICTIONARY
360
30E
102
}
330
2A
100
AcDbVisualStyle
  2
GouraudWithEdges
 70
     3
 71
     2
 72
     2
 73
     1
 90
        2
 40
-0.6
 41
30.0
 62
     5
 63
     7
 74
     1
 91
        4
 64
     7
 65
   257
 75
     1
175
     1
 42
1.0
 92
        0
 66
   257
 43
1.0
 76
     1
 77
     6
 78
     2
 67
     7
 79
     5
170
     0
171
     0
290
     0
174
     0
 93
       13
 44
0.0
173
     0
291
     1
 45
0.0
1001
ACAD
1000
AcDbSavedByObjectVersion
1070
     0
  0
VISUALSTYLE
  5
38
102
{ACAD_REACTORS
330
2A
102
}
102
{ACAD_XDICTIONARY
360
322
102
}
330
2A
100
AcDbVisualStyle
  2
Linepattern
 70
    14
 71
     2
 72
     2
 73
     0
 90
        0
 40
-0.6
 41
-30.0
 62
     5
 63
     7
 74
     1
 91
        4
 64
     7
 65
   257
 75
     7
175
     7
 42
1.0
 92
        8
 66
     7
 43
1.0
 76
     1
 77
     6
 78
     2
 67
     7
 79
     5
170
     0
171
     0
290
     0
174
     0
 93
        1
 44
0.0
173
     0
291
     1
 45
0.0
1001
ACAD
1000
AcDbSavedByObjectVersion
1070
     0
  0
VISUALSTYLE
  5
33
102
{ACAD_REACTORS
330
2A
102
}
102
{ACAD_XDICTIONARY
360
318
102
}
330
2A
100
AcDbVisualStyle
  2
Realistic
 70
     8
 71
     2
 72
     2
 73
     0
 90
        0
 40
-0.6
 41
-30.0
 62
     5
 63
     7
 74
     1
 91
        0
 64
     7
 65
   257
 75
     1
175
     1
 42
1.0
 92
        8
 66
     8
 43
1.0
 76
     1
 77
     6
 78
     2
 67
     7
 79
     5
170
     0
171
     0
290
     0
174
     0
 93
       13
 44
0.0
173
     0
291
     0
 45
0.0
1001
ACAD
1000
AcDbSavedByObjectVersion
1070
     0
  0
VISUALSTYLE
  5
37
102
{ACAD_REACTORS
330
2A
102
}
102
{ACAD_XDICTIONARY
360
320
102
}
330
2A
100
AcDbVisualStyle
  2
Thicken
 70
    13
 71
     2
 72
     2
 73
     0
 90
        0
 40
-0.6
 41
-30.0
 62
     5
 63
     7
 74
     1
 91
        4
 64
     7
 65
   257
 75
     1
175
     1
 42
1.0
 92
       12
 66
     7
 43
1.0
 76
     1
 77
     6
 78
     2
 67
     7
 79
     5
170
     0
171
     0
290
     0
174
     0
 93
        1
 44
0.0
173
     0
291
     1
 45
0.0
1001
ACAD
1000
AcDbSavedByObjectVersion
1070
     0
  0
DICTIONARYVAR
  5
306
102
{ACAD_REACTORS
330
303
102
}
330
303
100
DictionaryVariables
280
     0
  1
2
  0
DICTIONARYVAR
  5
307
102
{ACAD_REACTORS
330
303
102
}
330
303
100
DictionaryVariables
280
     0
  1
1
  0
DICTIONARY
  5
32A
330
3D
100
AcDbDictionary
280
     1
281
     1
  3
ACAD_XREC_ROUNDTRIP
360
32B
  0
DICTIONARY
  5
328
330
3C
100
AcDbDictionary
280
     1
281
     1
  3
ACAD_XREC_ROUNDTRIP
360
329
  0
DICTIONARY
  5
32C
330
3E
100
AcDbDictionary
280
     1
281
     1
  3
ACAD_XREC_ROUNDTRIP
360
32D
  0
DICTIONARY
  5
310
330
2F
100
AcDbDictionary
280
     1
281
     1
  3
ACAD_XREC_ROUNDTRIP
360
311
  0
DICTIONARY
  5
314
330
31
100
AcDbDictionary
280
     1
281
     1
  3
ACAD_XREC_ROUNDTRIP
360
315
  0
DICTIONARY
  5
312
330
30
100
AcDbDictionary
280
     1
281
     1
  3
ACAD_XREC_ROUNDTRIP
360
313
  0
DICTIONARY
  5
316
330
32
100
AcDbDictionary
280
     1
281
     1
  3
ACAD_XREC_ROUNDTRIP
360
317
  0
DICTIONARY
  5
31E
330
36
100
AcDbDictionary
280
     1
281
     1
  3
ACAD_XREC_ROUNDTRIP
360
31F
  0
DICTIONARY
  5
326
330
3A
100
AcDbDictionary
280
     1
281
     1
  3
ACAD_XREC_ROUNDTRIP
360
327
  0
DICTIONARY
  5
31A
330
34
100
AcDbDictionary
280
     1
281
     1
  3
ACAD_XREC_ROUNDTRIP
360
31B
  0
DICTIONARY
  5
31C
330
35
100
AcDbDictionary
280
     1
281
     1
  3
ACAD_XREC_ROUNDTRIP
360
31D
  0
DICTIONARY
  5
324
330
39
100
AcDbDictionary
280
     1
281
     1
  3
ACAD_XREC_ROUNDTRIP
360
325
  0
DICTIONARY
  5
308
330
2B
100
AcDbDictionary
280
     1
281
     1
  3
ACAD_XREC_ROUNDTRIP
360
309
  0
DICTIONARY
  5
30A
330
2C
100
AcDbDictionary
280
     1
281
     1
  3
ACAD_XREC_ROUNDTRIP
360
30B
  0
DICTIONARY
  5
30C
330
2D
100
AcDbDictionary
280
     1
281
     1
  3
ACAD_XREC_ROUNDTRIP
360
30D
  0
DICTIONARY
  5
30E
330
2E
100
AcDbDictionary
280
     1
281
     1
  3
ACAD_XREC_ROUNDTRIP
360
30F
  0
DICTIONARY
  5
322
330
38
100
AcDbDictionary
280
     1
281
     1
  3
ACAD_XREC_ROUNDTRIP
360
323
  0
DICTIONARY
  5
318
330
33
100
AcDbDictionary
280
     1
281
     1
  3
ACAD_XREC_ROUNDTRIP
360
319
  0
DICTIONARY
  5
320
330
37
100
AcDbDictionary
280
     1
281
     1
  3
ACAD_XREC_ROUNDTRIP
360
321
  0
XRECORD
  5
32B
102
{ACAD_REACTORS
330
32A
102
}
330
32A
100
AcDbXrecord
280
     1
102
MATERIAL
148
0.0
149
0.0
149
0.0
 93
        0
 94
      127
282
     0
 72
     1
 77
     1
171
     1
175
     1
179
     1
273
     0
  0
XRECORD
  5
329
102
{ACAD_REACTORS
330
328
102
}
330
328
100
AcDbXrecord
280
     1
102
MATERIAL
148
0.0
149
0.0
149
0.0
 93
        0
 94
      127
282
     0
 72
     1
 77
     1
171
     1
175
     1
179
     1
273
     0
  0
XRECORD
  5
32D
102
{ACAD_REACTORS
330
32C
102
}
330
32C
100
AcDbXrecord
280
     1
102
MATERIAL
148
0.0
149
0.0
149
0.0
 93
        0
 94
      127
282
     0
 72
     1
 77
     1
171
     1
175
     1
179
     1
273
     0
  0
XRECORD
  5
311
102
{ACAD_REACTORS
330
310
102
}
330
310
100
AcDbXrecord
280
     1
102
RTVSPropertyOp0
 70
     1
102
RTVSPropertyOp1
 70
     1
102
RTVSPropertyOp2
 70
     1
102
RTVSPropertyOp3
 70
     1
102
RTVSPropertyOp4
 70
     1
102
RTVSPropertyOp5
 70
     1
102
RTVSPropertyOp6
 70
     1
102
RTVSPropertyOp7
 70
     1
102
RTVSPropertyOp8
 70
     1
102
RTVSPropertyOp9
 70
     1
102
RTVSPropertyOp10
 70
     1
102
RTVSPropertyOp11
 70
     1
102
RTVSPropertyOp12
 70
     1
102
RTVSPropertyOp13
 70
     1
102
RTVSPropertyOp14
 70
     1
102
RTVSPropertyOp15
 70
     1
102
RTVSPropertyOp16
 70
     1
102
RTVSPropertyOp17
 70
     1
102
RTVSPropertyOp18
 70
     1
102
RTVSPropertyOp19
 70
     1
102
RTVSPropertyOp20
 70
     1
102
RTVSPropertyOp21
 70
     1
102
RTVSPropertyOp22
 70
     1
102
RTVSPropertyOp23
 70
     1
102
RTVSPropertyOp24
 70
     1
102
RTVSPropertyOp25
 70
     1
102
RTVSPropertyOp26
 70
     1
102
RTVSPropertyOp27
 70
     1
102
RTVSPropertyOp28
 70
     1
102
RTVSPropertyOp29
 70
     1
102
RTVSPropertyOp30
 70
     1
102
RTVSPropertyOp31
 70
     1
102
RTVSPropertyOp32
 70
     1
  0
XRECORD
  5
315
102
{ACAD_REACTORS
330
314
102
}
330
314
100
AcDbXrecord
280
     1
102
RTVSPropertyOp0
 70
     1
102
RTVSPropertyOp1
 70
     1
102
RTVSPropertyOp2
 70
     1
102
RTVSPropertyOp3
 70
     1
102
RTVSPropertyOp4
 70
     1
102
RTVSPropertyOp5
 70
     1
102
RTVSPropertyOp6
 70
     1
102
RTVSPropertyOp7
 70
     1
102
RTVSPropertyOp8
 70
     1
102
RTVSPropertyOp9
 70
     1
102
RTVSPropertyOp10
 70
     1
102
RTVSPropertyOp11
 70
     1
102
RTVSPropertyOp12
 70
     1
102
RTVSPropertyOp13
 70
     1
102
RTVSPropertyOp14
 70
     1
102
RTVSPropertyOp15
 70
     1
102
RTVSPropertyOp16
 70
     1
102
RTVSPropertyOp17
 70
     1
102
RTVSPropertyOp18
 70
     1
102
RTVSPropertyOp19
 70
     1
102
RTVSPropertyOp20
 70
     1
102
RTVSPropertyOp21
 70
     1
102
RTVSPropertyOp22
 70
     1
102
RTVSPropertyOp23
 70
     1
102
RTVSPropertyOp24
 70
     1
102
RTVSPropertyOp25
 70
     1
102
RTVSPropertyOp26
 70
     1
102
RTVSPropertyOp27
 70
     1
102
RTVSPropertyOp28
 70
     1
102
RTVSPropertyOp29
 70
     1
102
RTVSPropertyOp30
 70
     1
102
RTVSPropertyOp31
 70
     1
102
RTVSPropertyOp32
 70
     1
  0
XRECORD
  5
313
102
{ACAD_REACTORS
330
312
102
}
330
312
100
AcDbXrecord
280
     1
102
RTVSPropertyOp0
 70
     1
102
RTVSPropertyOp1
 70
     1
102
RTVSPropertyOp2
 70
     1
102
RTVSPropertyOp3
 70
     1
102
RTVSPropertyOp4
 70
     1
102
RTVSPropertyOp5
 70
     1
102
RTVSPropertyOp6
 70
     1
102
RTVSPropertyOp7
 70
     1
102
RTVSPropertyOp8
 70
     1
102
RTVSPropertyOp9
 70
     1
102
RTVSPropertyOp10
 70
     1
102
RTVSPropertyOp11
 70
     1
102
RTVSPropertyOp12
 70
     1
102
RTVSPropertyOp13
 70
     1
102
RTVSPropertyOp14
 70
     1
102
RTVSPropertyOp15
 70
     1
102
RTVSPropertyOp16
 70
     1
102
RTVSPropertyOp17
 70
     1
102
RTVSPropertyOp18
 70
     1
102
RTVSPropertyOp19
 70
     1
102
RTVSPropertyOp20
 70
     1
102
RTVSPropertyOp21
 70
     1
102
RTVSPropertyOp22
 70
     1
102
RTVSPropertyOp23
 70
     1
102
RTVSPropertyOp24
 70
     1
102
RTVSPropertyOp25
 70
     1
102
RTVSPropertyOp26
 70
     1
102
RTVSPropertyOp27
 70
     1
102
RTVSPropertyOp28
 70
     1
102
RTVSPropertyOp29
 70
     1
102
RTVSPropertyOp30
 70
     1
102
RTVSPropertyOp31
 70
     1
102
RTVSPropertyOp32
 70
     1
  0
XRECORD
  5
317
102
{ACAD_REACTORS
330
316
102
}
330
316
100
AcDbXrecord
280
     1
102
RTVSPropertyOp0
 70
     1
102
RTVSPropertyOp1
 70
     1
102
RTVSPropertyOp2
 70
     1
102
RTVSPropertyOp3
 70
     1
102
RTVSPropertyOp4
 70
     1
102
RTVSPropertyOp5
 70
     1
102
RTVSPropertyOp6
 70
     1
102
RTVSPropertyOp7
 70
     1
102
RTVSPropertyOp8
 70
     1
102
RTVSPropertyOp9
 70
     1
102
RTVSPropertyOp10
 70
     1
102
RTVSPropertyOp11
 70
     1
102
RTVSPropertyOp12
 70
     1
102
RTVSPropertyOp13
 70
     1
102
RTVSPropertyOp14
 70
     1
102
RTVSPropertyOp15
 70
     1
102
RTVSPropertyOp16
 70
     1
102
RTVSPropertyOp17
 70
     1
102
RTVSPropertyOp18
 70
     1
102
RTVSPropertyOp19
 70
     1
102
RTVSPropertyOp20
 70
     1
102
RTVSPropertyOp21
 70
     1
102
RTVSPropertyOp22
 70
     1
102
RTVSPropertyOp23
 70
     1
102
RTVSPropertyOp24
 70
     1
102
RTVSPropertyOp25
 70
     1
102
RTVSPropertyOp26
 70
     1
102
RTVSPropertyOp27
 70
     1
102
RTVSPropertyOp28
 70
     1
102
RTVSPropertyOp29
 70
     1
102
RTVSPropertyOp30
 70
     1
102
RTVSPropertyOp31
 70
     1
102
RTVSPropertyOp32
 70
     1
  0
XRECORD
  5
31F
102
{ACAD_REACTORS
330
31E
102
}
330
31E
100
AcDbXrecord
280
     1
102
RTVSPropertyOp0
 70
     1
102
RTVSPropertyOp1
 70
     1
102
RTVSPropertyOp2
 70
     1
102
RTVSPropertyOp3
 70
     1
102
RTVSPropertyOp4
 70
     1
102
RTVSPropertyOp5
 70
     1
102
RTVSPropertyOp6
 70
     1
102
RTVSPropertyOp7
 70
     1
102
RTVSPropertyOp8
 70
     1
102
RTVSPropertyOp9
 70
     1
102
RTVSPropertyOp10
 70
     1
102
RTVSPropertyOp11
 70
     1
102
RTVSPropertyOp12
 70
     1
102
RTVSPropertyOp13
 70
     1
102
RTVSPropertyOp14
 70
     1
102
RTVSPropertyOp15
 70
     1
102
RTVSPropertyOp16
 70
     1
102
RTVSPropertyOp17
 70
     1
102
RTVSPropertyOp18
 70
     1
102
RTVSPropertyOp19
 70
     1
102
RTVSPropertyOp20
 70
     1
102
RTVSPropertyOp21
 70
     1
102
RTVSPropertyOp22
 70
     1
102
RTVSPropertyOp23
 70
     1
102
RTVSPropertyOp24
 70
     1
102
RTVSPropertyOp25
 70
     1
102
RTVSPropertyOp26
 70
     1
102
RTVSPropertyOp27
 70
     1
102
RTVSPropertyOp28
 70
     1
102
RTVSPropertyOp29
 70
     1
102
RTVSPropertyOp30
 70
     1
102
RTVSPropertyOp31
 70
     1
102
RTVSPropertyOp32
 70
     1
  0
XRECORD
  5
327
102
{ACAD_REACTORS
330
326
102
}
330
326
100
AcDbXrecord
280
     1
102
RTVSPropertyOp0
 70
     1
102
RTVSPropertyOp1
 70
     1
102
RTVSPropertyOp2
 70
     1
102
RTVSPropertyOp3
 70
     1
102
RTVSPropertyOp4
 70
     1
102
RTVSPropertyOp5
 70
     1
102
RTVSPropertyOp6
 70
     1
102
RTVSPropertyOp7
 70
     1
102
RTVSPropertyOp8
 70
     1
102
RTVSPropertyOp9
 70
     1
102
RTVSPropertyOp10
 70
     1
102
RTVSPropertyOp11
 70
     1
102
RTVSPropertyOp12
 70
     1
102
RTVSPropertyOp13
 70
     1
102
RTVSPropertyOp14
 70
     1
102
RTVSPropertyOp15
 70
     1
102
RTVSPropertyOp16
 70
     1
102
RTVSPropertyOp17
 70
     1
102
RTVSPropertyOp18
 70
     1
102
RTVSPropertyOp19
 70
     1
102
RTVSPropertyOp20
 70
     1
102
RTVSPropertyOp21
 70
     1
102
RTVSPropertyOp22
 70
     1
102
RTVSPropertyOp23
 70
     1
102
RTVSPropertyOp24
 70
     1
102
RTVSPropertyOp25
 70
     1
102
RTVSPropertyOp26
 70
     1
102
RTVSPropertyOp27
 70
     1
102
RTVSPropertyOp28
 70
     1
102
RTVSPropertyOp29
 70
     1
102
RTVSPropertyOp30
 70
     1
102
RTVSPropertyOp31
 70
     1
102
RTVSPropertyOp32
 70
     1
  0
XRECORD
  5
31B
102
{ACAD_REACTORS
330
31A
102
}
330
31A
100
AcDbXrecord
280
     1
102
RTVSPropertyOp0
 70
     1
102
RTVSPropertyOp1
 70
     1
102
RTVSPropertyOp2
 70
     1
102
RTVSPropertyOp3
 70
     1
102
RTVSPropertyOp4
 70
     1
102
RTVSPropertyOp5
 70
     1
102
RTVSPropertyOp6
 70
     1
102
RTVSPropertyOp7
 70
     1
102
RTVSPropertyOp8
 70
     1
102
RTVSPropertyOp9
 70
     1
102
RTVSPropertyOp10
 70
     1
102
RTVSPropertyOp11
 70
     1
102
RTVSPropertyOp12
 70
     1
102
RTVSPropertyOp13
 70
     1
102
RTVSPropertyOp14
 70
     1
102
RTVSPropertyOp15
 70
     1
102
RTVSPropertyOp16
 70
     1
102
RTVSPropertyOp17
 70
     1
102
RTVSPropertyOp18
 70
     1
102
RTVSPropertyOp19
 70
     1
102
RTVSPropertyOp20
 70
     1
102
RTVSPropertyOp21
 70
     1
102
RTVSPropertyOp22
 70
     1
102
RTVSPropertyOp23
 70
     1
102
RTVSPropertyOp24
 70
     1
102
RTVSPropertyOp25
 70
     1
102
RTVSPropertyOp26
 70
     1
102
RTVSPropertyOp27
 70
     1
102
RTVSPropertyOp28
 70
     1
102
RTVSPropertyOp29
 70
     1
102
RTVSPropertyOp30
 70
     1
102
RTVSPropertyOp31
 70
     1
102
RTVSPropertyOp32
 70
     1
  0
XRECORD
  5
31D
102
{ACAD_REACTORS
330
31C
102
}
330
31C
100
AcDbXrecord
280
     1
102
RTVSPropertyOp0
 70
     1
102
RTVSPropertyOp1
 70
     1
102
RTVSPropertyOp2
 70
     1
102
RTVSPropertyOp3
 70
     1
102
RTVSPropertyOp4
 70
     1
102
RTVSPropertyOp5
 70
     1
102
RTVSPropertyOp6
 70
     1
102
RTVSPropertyOp7
 70
     1
102
RTVSPropertyOp8
 70
     1
102
RTVSPropertyOp9
 70
     1
102
RTVSPropertyOp10
 70
     1
102
RTVSPropertyOp11
 70
     1
102
RTVSPropertyOp12
 70
     1
102
RTVSPropertyOp13
 70
     1
102
RTVSPropertyOp14
 70
     1
102
RTVSPropertyOp15
 70
     1
102
RTVSPropertyOp16
 70
     1
102
RTVSPropertyOp17
 70
     1
102
RTVSPropertyOp18
 70
     1
102
RTVSPropertyOp19
 70
     1
102
RTVSPropertyOp20
 70
     1
102
RTVSPropertyOp21
 70
     1
102
RTVSPropertyOp22
 70
     1
102
RTVSPropertyOp23
 70
     1
102
RTVSPropertyOp24
 70
     1
102
RTVSPropertyOp25
 70
     1
102
RTVSPropertyOp26
 70
     1
102
RTVSPropertyOp27
 70
     1
102
RTVSPropertyOp28
 70
     1
102
RTVSPropertyOp29
 70
     1
102
RTVSPropertyOp30
 70
     1
102
RTVSPropertyOp31
 70
     1
102
RTVSPropertyOp32
 70
     1
  0
XRECORD
  5
325
102
{ACAD_REACTORS
330
324
102
}
330
324
100
AcDbXrecord
280
     1
102
RTVSPropertyOp0
 70
     1
102
RTVSPropertyOp1
 70
     1
102
RTVSPropertyOp2
 70
     1
102
RTVSPropertyOp3
 70
     1
102
RTVSPropertyOp4
 70
     1
102
RTVSPropertyOp5
 70
     1
102
RTVSPropertyOp6
 70
     1
102
RTVSPropertyOp7
 70
     1
102
RTVSPropertyOp8
 70
     1
102
RTVSPropertyOp9
 70
     1
102
RTVSPropertyOp10
 70
     1
102
RTVSPropertyOp11
 70
     1
102
RTVSPropertyOp12
 70
     1
102
RTVSPropertyOp13
 70
     1
102
RTVSPropertyOp14
 70
     1
102
RTVSPropertyOp15
 70
     1
102
RTVSPropertyOp16
 70
     1
102
RTVSPropertyOp17
 70
     1
102
RTVSPropertyOp18
 70
     1
102
RTVSPropertyOp19
 70
     1
102
RTVSPropertyOp20
 70
     1
102
RTVSPropertyOp21
 70
     1
102
RTVSPropertyOp22
 70
     1
102
RTVSPropertyOp23
 70
     1
102
RTVSPropertyOp24
 70
     1
102
RTVSPropertyOp25
 70
     1
102
RTVSPropertyOp26
 70
     1
102
RTVSPropertyOp27
 70
     1
102
RTVSPropertyOp28
 70
     1
102
RTVSPropertyOp29
 70
     1
102
RTVSPropertyOp30
 70
     1
102
RTVSPropertyOp31
 70
     1
102
RTVSPropertyOp32
 70
     1
  0
XRECORD
  5
309
102
{ACAD_REACTORS
330
308
102
}
330
308
100
AcDbXrecord
280
     1
102
RTVSPropertyOp0
 70
     1
102
RTVSPropertyOp1
 70
     1
102
RTVSPropertyOp2
 70
     1
102
RTVSPropertyOp3
 70
     1
102
RTVSPropertyOp4
 70
     1
102
RTVSPropertyOp5
 70
     1
102
RTVSPropertyOp6
 70
     1
102
RTVSPropertyOp7
 70
     1
102
RTVSPropertyOp8
 70
     1
102
RTVSPropertyOp9
 70
     1
102
RTVSPropertyOp10
 70
     1
102
RTVSPropertyOp11
 70
     1
102
RTVSPropertyOp12
 70
     1
102
RTVSPropertyOp13
 70
     1
102
RTVSPropertyOp14
 70
     1
102
RTVSPropertyOp15
 70
     1
102
RTVSPropertyOp16
 70
     1
102
RTVSPropertyOp17
 70
     1
102
RTVSPropertyOp18
 70
     1
102
RTVSPropertyOp19
 70
     1
102
RTVSPropertyOp20
 70
     1
102
RTVSPropertyOp21
 70
     1
102
RTVSPropertyOp22
 70
     1
102
RTVSPropertyOp23
 70
     1
102
RTVSPropertyOp24
 70
     1
102
RTVSPropertyOp25
 70
     1
102
RTVSPropertyOp26
 70
     1
102
RTVSPropertyOp27
 70
     1
102
RTVSPropertyOp28
 70
     1
102
RTVSPropertyOp29
 70
     1
102
RTVSPropertyOp30
 70
     1
102
RTVSPropertyOp31
 70
     1
102
RTVSPropertyOp32
 70
     1
  0
XRECORD
  5
30B
102
{ACAD_REACTORS
330
30A
102
}
330
30A
100
AcDbXrecord
280
     1
102
RTVSPropertyOp0
 70
     1
102
RTVSPropertyOp1
 70
     1
102
RTVSPropertyOp2
 70
     1
102
RTVSPropertyOp3
 70
     1
102
RTVSPropertyOp4
 70
     1
102
RTVSPropertyOp5
 70
     1
102
RTVSPropertyOp6
 70
     1
102
RTVSPropertyOp7
 70
     1
102
RTVSPropertyOp8
 70
     1
102
RTVSPropertyOp9
 70
     1
102
RTVSPropertyOp10
 70
     1
102
RTVSPropertyOp11
 70
     1
102
RTVSPropertyOp12
 70
     1
102
RTVSPropertyOp13
 70
     1
102
RTVSPropertyOp14
 70
     1
102
RTVSPropertyOp15
 70
     1
102
RTVSPropertyOp16
 70
     1
102
RTVSPropertyOp17
 70
     1
102
RTVSPropertyOp18
 70
     1
102
RTVSPropertyOp19
 70
     1
102
RTVSPropertyOp20
 70
     1
102
RTVSPropertyOp21
 70
     1
102
RTVSPropertyOp22
 70
     1
102
RTVSPropertyOp23
 70
     1
102
RTVSPropertyOp24
 70
     1
102
RTVSPropertyOp25
 70
     1
102
RTVSPropertyOp26
 70
     1
102
RTVSPropertyOp27
 70
     1
102
RTVSPropertyOp28
 70
     1
102
RTVSPropertyOp29
 70
     1
102
RTVSPropertyOp30
 70
     1
102
RTVSPropertyOp31
 70
     1
102
RTVSPropertyOp32
 70
     1
  0
XRECORD
  5
30D
102
{ACAD_REACTORS
330
30C
102
}
330
30C
100
AcDbXrecord
280
     1
102
RTVSPropertyOp0
 70
     1
102
RTVSPropertyOp1
 70
     1
102
RTVSPropertyOp2
 70
     1
102
RTVSPropertyOp3
 70
     1
102
RTVSPropertyOp4
 70
     1
102
RTVSPropertyOp5
 70
     1
102
RTVSPropertyOp6
 70
     1
102
RTVSPropertyOp7
 70
     1
102
RTVSPropertyOp8
 70
     1
102
RTVSPropertyOp9
 70
     1
102
RTVSPropertyOp10
 70
     1
102
RTVSPropertyOp11
 70
     1
102
RTVSPropertyOp12
 70
     1
102
RTVSPropertyOp13
 70
     1
102
RTVSPropertyOp14
 70
     1
102
RTVSPropertyOp15
 70
     1
102
RTVSPropertyOp16
 70
     1
102
RTVSPropertyOp17
 70
     1
102
RTVSPropertyOp18
 70
     1
102
RTVSPropertyOp19
 70
     1
102
RTVSPropertyOp20
 70
     1
102
RTVSPropertyOp21
 70
     1
102
RTVSPropertyOp22
 70
     1
102
RTVSPropertyOp23
 70
     1
102
RTVSPropertyOp24
 70
     1
102
RTVSPropertyOp25
 70
     1
102
RTVSPropertyOp26
 70
     1
102
RTVSPropertyOp27
 70
     1
102
RTVSPropertyOp28
 70
     1
102
RTVSPropertyOp29
 70
     1
102
RTVSPropertyOp30
 70
     1
102
RTVSPropertyOp31
 70
     1
102
RTVSPropertyOp32
 70
     1
  0
XRECORD
  5
30F
102
{ACAD_REACTORS
330
30E
102
}
330
30E
100
AcDbXrecord
280
     1
102
RTVSPropertyOp0
 70
     1
102
RTVSPropertyOp1
 70
     1
102
RTVSPropertyOp2
 70
     1
102
RTVSPropertyOp3
 70
     1
102
RTVSPropertyOp4
 70
     1
102
RTVSPropertyOp5
 70
     1
102
RTVSPropertyOp6
 70
     1
102
RTVSPropertyOp7
 70
     1
102
RTVSPropertyOp8
 70
     1
102
RTVSPropertyOp9
 70
     1
102
RTVSPropertyOp10
 70
     1
102
RTVSPropertyOp11
 70
     1
102
RTVSPropertyOp12
 70
     1
102
RTVSPropertyOp13
 70
     1
102
RTVSPropertyOp14
 70
     1
102
RTVSPropertyOp15
 70
     1
102
RTVSPropertyOp16
 70
     1
102
RTVSPropertyOp17
 70
     1
102
RTVSPropertyOp18
 70
     1
102
RTVSPropertyOp19
 70
     1
102
RTVSPropertyOp20
 70
     1
102
RTVSPropertyOp21
 70
     1
102
RTVSPropertyOp22
 70
     1
102
RTVSPropertyOp23
 70
     1
102
RTVSPropertyOp24
 70
     1
102
RTVSPropertyOp25
 70
     1
102
RTVSPropertyOp26
 70
     1
102
RTVSPropertyOp27
 70
     1
102
RTVSPropertyOp28
 70
     1
102
RTVSPropertyOp29
 70
     1
102
RTVSPropertyOp30
 70
     1
102
RTVSPropertyOp31
 70
     1
102
RTVSPropertyOp32
 70
     1
  0
XRECORD
  5
323
102
{ACAD_REACTORS
330
322
102
}
330
322
100
AcDbXrecord
280
     1
102
RTVSPropertyOp0
 70
     1
102
RTVSPropertyOp1
 70
     1
102
RTVSPropertyOp2
 70
     1
102
RTVSPropertyOp3
 70
     1
102
RTVSPropertyOp4
 70
     1
102
RTVSPropertyOp5
 70
     1
102
RTVSPropertyOp6
 70
     1
102
RTVSPropertyOp7
 70
     1
102
RTVSPropertyOp8
 70
     1
102
RTVSPropertyOp9
 70
     1
102
RTVSPropertyOp10
 70
     1
102
RTVSPropertyOp11
 70
     1
102
RTVSPropertyOp12
 70
     1
102
RTVSPropertyOp13
 70
     1
102
RTVSPropertyOp14
 70
     1
102
RTVSPropertyOp15
 70
     1
102
RTVSPropertyOp16
 70
     1
102
RTVSPropertyOp17
 70
     1
102
RTVSPropertyOp18
 70
     1
102
RTVSPropertyOp19
 70
     1
102
RTVSPropertyOp20
 70
     1
102
RTVSPropertyOp21
 70
     1
102
RTVSPropertyOp22
 70
     1
102
RTVSPropertyOp23
 70
     1
102
RTVSPropertyOp24
 70
     1
102
RTVSPropertyOp25
 70
     1
102
RTVSPropertyOp26
 70
     1
102
RTVSPropertyOp27
 70
     1
102
RTVSPropertyOp28
 70
     1
102
RTVSPropertyOp29
 70
     1
102
RTVSPropertyOp30
 70
     1
102
RTVSPropertyOp31
 70
     1
102
RTVSPropertyOp32
 70
     1
  0
XRECORD
  5
319
102
{ACAD_REACTORS
330
318
102
}
330
318
100
AcDbXrecord
280
     1
102
RTVSPropertyOp0
 70
     1
102
RTVSPropertyOp1
 70
     1
102
RTVSPropertyOp2
 70
     1
102
RTVSPropertyOp3
 70
     1
102
RTVSPropertyOp4
 70
     1
102
RTVSPropertyOp5
 70
     1
102
RTVSPropertyOp6
 70
     1
102
RTVSPropertyOp7
 70
     1
102
RTVSPropertyOp8
 70
     1
102
RTVSPropertyOp9
 70
     1
102
RTVSPropertyOp10
 70
     1
102
RTVSPropertyOp11
 70
     1
102
RTVSPropertyOp12
 70
     1
102
RTVSPropertyOp13
 70
     1
102
RTVSPropertyOp14
 70
     1
102
RTVSPropertyOp15
 70
     1
102
RTVSPropertyOp16
 70
     1
102
RTVSPropertyOp17
 70
     1
102
RTVSPropertyOp18
 70
     1
102
RTVSPropertyOp19
 70
     1
102
RTVSPropertyOp20
 70
     1
102
RTVSPropertyOp21
 70
     1
102
RTVSPropertyOp22
 70
     1
102
RTVSPropertyOp23
 70
     1
102
RTVSPropertyOp24
 70
     1
102
RTVSPropertyOp25
 70
     1
102
RTVSPropertyOp26
 70
     1
102
RTVSPropertyOp27
 70
     1
102
RTVSPropertyOp28
 70
     1
102
RTVSPropertyOp29
 70
     1
102
RTVSPropertyOp30
 70
     1
102
RTVSPropertyOp31
 70
     1
102
RTVSPropertyOp32
 70
     1
  0
XRECORD
  5
321
102
{ACAD_REACTORS
330
320
102
}
330
320
100
AcDbXrecord
280
     1
102
RTVSPropertyOp0
 70
     1
102
RTVSPropertyOp1
 70
     1
102
RTVSPropertyOp2
 70
     1
102
RTVSPropertyOp3
 70
     1
102
RTVSPropertyOp4
 70
     1
102
RTVSPropertyOp5
 70
     1
102
RTVSPropertyOp6
 70
     1
102
RTVSPropertyOp7
 70
     1
102
RTVSPropertyOp8
 70
     1
102
RTVSPropertyOp9
 70
     1
102
RTVSPropertyOp10
 70
     1
102
RTVSPropertyOp11
 70
     1
102
RTVSPropertyOp12
 70
     1
102
RTVSPropertyOp13
 70
     1
102
RTVSPropertyOp14
 70
     1
102
RTVSPropertyOp15
 70
     1
102
RTVSPropertyOp16
 70
     1
102
RTVSPropertyOp17
 70
     1
102
RTVSPropertyOp18
 70
     1
102
RTVSPropertyOp19
 70
     1
102
RTVSPropertyOp20
 70
     1
102
RTVSPropertyOp21
 70
     1
102
RTVSPropertyOp22
 70
     1
102
RTVSPropertyOp23
 70
     1
102
RTVSPropertyOp24
 70
     1
102
RTVSPropertyOp25
 70
     1
102
RTVSPropertyOp26
 70
     1
102
RTVSPropertyOp27
 70
     1
102
RTVSPropertyOp28
 70
     1
102
RTVSPropertyOp29
 70
     1
102
RTVSPropertyOp30
 70
     1
102
RTVSPropertyOp31
 70
     1
102
RTVSPropertyOp32
 70
     1
  0
ENDSEC
  0
EOF
